Guest User

Untitled

a guest
Apr 7th, 2021
47
Never
Not a member of Pastebin yet? Sign Up, it unlocks many cool features!
  1. General
  2. Unique ID : 317092469352577118189760577798849065043 (0xEE8DC9C69888E53BFE8FDD37C8067053)
  3. Complete name : F:\Video\Monster.Hunter.2020.Lic.BDREMUX.1080p.seleZen.mkv
  4. Format : Matroska
  5. Format version : Version 4
  6. File size : 20.9 GiB
  7. Duration : 1 h 43 min
  8. Overall bit rate mode : Variable
  9. Overall bit rate : 29.0 Mb/s
  10. Movie name : Monster Hunter 2020 from seleZen
  11. Encoded date : UTC 2021-04-07 15:15:25
  12. Writing application : mkvmerge v55.0.0 ('Waiting For Space') 64-bit
  13. Writing library : libebml v1.4.2 + libmatroska v1.6.4
  14.  
  15. Video
  16. ID : 1
  17. Format : AVC
  18. Format/Info : Advanced Video Codec
  19. Format profile : High@L4.1
  20. Format settings : CABAC / 2 Ref Frames
  21. Format settings, CABAC : Yes
  22. Format settings, Reference : 2 frames
  23. Format settings, GOP : M=1, N=10
  24. Codec ID : V_MPEG4/ISO/AVC
  25. Duration : 1 h 43 min
  26. Bit rate mode : Variable
  27. Bit rate : 25.9 Mb/s
  28. Width : 1 920 pixels
  29. Height : 1 080 pixels
  30. Display aspect ratio : 16:9
  31. Frame rate mode : Constant
  32. Frame rate : 23.976 (24000/1001) FPS
  33. Color space : YUV
  34. Chroma subsampling : 4:2:0
  35. Bit depth : 8 bits
  36. Scan type : Progressive
  37. Bits/(Pixel*Frame) : 0.521
  38. Stream size : 18.7 GiB (89%)
  39. Language : English
  40. Default : Yes
  41. Forced : No
  42.  
  43. Audio #1
  44. ID : 2
  45. Format : AC-3
  46. Format/Info : Audio Coding 3
  47. Commercial name : Dolby Digital
  48. Codec ID : A_AC3
  49. Duration : 1 h 43 min
  50. Bit rate mode : Constant
  51. Bit rate : 640 kb/s
  52. Channel(s) : 6 channels
  53. Channel layout : L R C LFE Ls Rs
  54. Sampling rate : 48.0 kHz
  55. Frame rate : 31.250 FPS (1536 SPF)
  56. Compression mode : Lossy
  57. Stream size : 472 MiB (2%)
  58. Title : Dub [License]
  59. Language : Russian
  60. Service kind : Complete Main
  61. Default : Yes
  62. Forced : Yes
  63.  
  64. Audio #2
  65. ID : 3
  66. Format : DTS XLL
  67. Format/Info : Digital Theater Systems
  68. Commercial name : DTS-HD Master Audio
  69. Codec ID : A_DTS
  70. Duration : 1 h 43 min
  71. Bit rate mode : Variable
  72. Bit rate : 2 443 kb/s
  73. Channel(s) : 6 channels
  74. Channel layout : C L R Ls Rs LFE
  75. Sampling rate : 48.0 kHz
  76. Frame rate : 93.750 FPS (512 SPF)
  77. Bit depth : 16 bits
  78. Compression mode : Lossless
  79. Stream size : 1.76 GiB (8%)
  80. Title : Original
  81. Language : English
  82. Default : No
  83. Forced : No
  84.  
  85. Text #1
  86. ID : 4
  87. Format : UTF-8
  88. Codec ID : S_TEXT/UTF8
  89. Codec ID/Info : UTF-8 Plain Text
  90. Duration : 1 h 41 min
  91. Bit rate : 0 b/s
  92. Count of elements : 10
  93. Stream size : 536 Bytes (0%)
  94. Title : Forced
  95. Language : Russian
  96. Default : Yes
  97. Forced : Yes
  98.  
  99. Text #2
  100. ID : 5
  101. Format : UTF-8
  102. Codec ID : S_TEXT/UTF8
  103. Codec ID/Info : UTF-8 Plain Text
  104. Duration : 1 h 41 min
  105. Bit rate : 27 b/s
  106. Count of elements : 490
  107. Stream size : 20.3 KiB (0%)
  108. Title : Full
  109. Language : Russian
  110. Default : No
  111. Forced : No
  112.  
  113. Text #3
  114. ID : 6
  115. Format : UTF-8
  116. Codec ID : S_TEXT/UTF8
  117. Codec ID/Info : UTF-8 Plain Text
  118. Duration : 1 h 32 min
  119. Bit rate : 30 b/s
  120. Count of elements : 521
  121. Stream size : 20.9 KiB (0%)
  122. Title : Full [Enigma]
  123. Language : Russian
  124. Default : No
  125. Forced : No
  126.  
  127. Text #4
  128. ID : 7
  129. Format : UTF-8
  130. Codec ID : S_TEXT/UTF8
  131. Codec ID/Info : UTF-8 Plain Text
  132. Duration : 1 h 33 min
  133. Bit rate : 29 b/s
  134. Count of elements : 502
  135. Stream size : 20.3 KiB (0%)
  136. Title : Full [FOCS]
  137. Language : Russian
  138. Default : No
  139. Forced : No
  140.  
  141. Text #5
  142. ID : 8
  143. Format : UTF-8
  144. Codec ID : S_TEXT/UTF8
  145. Codec ID/Info : UTF-8 Plain Text
  146. Duration : 19 min 24 s
  147. Bit rate : 0 b/s
  148. Count of elements : 4
  149. Stream size : 112 Bytes (0%)
  150. Title : Forced
  151. Language : English
  152. Default : No
  153. Forced : No
  154.  
  155. Text #6
  156. ID : 9
  157. Format : UTF-8
  158. Codec ID : S_TEXT/UTF8
  159. Codec ID/Info : UTF-8 Plain Text
  160. Duration : 1 h 29 min
  161. Bit rate : 19 b/s
  162. Count of elements : 498
  163. Stream size : 12.7 KiB (0%)
  164. Title : Full
  165. Language : English
  166. Default : No
  167. Forced : No
  168.  
  169. Text #7
  170. ID : 10
  171. Format : UTF-8
  172. Codec ID : S_TEXT/UTF8
  173. Codec ID/Info : UTF-8 Plain Text
  174. Duration : 1 h 35 min
  175. Bit rate : 26 b/s
  176. Count of elements : 814
  177. Stream size : 18.6 KiB (0%)
  178. Title : SDH
  179. Language : English
  180. Default : No
  181. Forced : No
  182.  
  183. Menu
  184. 00:00:00.000 : en:Chapter 01
  185. 00:04:59.424 : en:Chapter 02
  186. 00:10:28.211 : en:Chapter 03
  187. 00:15:26.342 : en:Chapter 04
  188. 00:21:12.938 : en:Chapter 05
  189. 00:24:53.492 : en:Chapter 06
  190. 00:31:53.328 : en:Chapter 07
  191. 00:35:58.698 : en:Chapter 08
  192. 00:41:10.301 : en:Chapter 09
  193. 00:48:05.007 : en:Chapter 10
  194. 00:54:10.080 : en:Chapter 11
  195. 01:01:36.109 : en:Chapter 12
  196. 01:06:18.516 : en:Chapter 13
  197. 01:13:21.689 : en:Chapter 14
  198. 01:23:01.727 : en:Chapter 15
  199. 01:31:21.601 : en:Chapter 16
  200. 01:35:39.734 : en:Chapter 17
  201.  
  202.  
RAW Paste Data