Ledger Nano X - The secure hardware wallet
SHARE
TWEET

Untitled

a guest Feb 22nd, 2020 92 Never
Not a member of Pastebin yet? Sign Up, it unlocks many cool features!
  1. General
  2. Unique ID                                : 254674718184230638298141263440395943749 (0xBF98910B9459986AFDDEB11453B4BF45)
  3. Complete name                            : Dark.Waters.2019.P.BDRip.1080p.ELEKTRI4KA.UNIONGANG.mkv
  4. Format                                   : Matroska
  5. Format version                           : Version 4
  6. File size                                : 14.2 GiB
  7. Duration                                 : 2 h 7 min
  8. Overall bit rate                         : 16.0 Mb/s
  9. Movie name                               : Dark Waters by ELEKTRI4KA
  10. Encoded date                             : UTC 2020-02-22 12:42:49
  11. Writing application                      : mkvmerge v26.0.0 ('In The Game') 64-bit
  12. Writing library                          : libebml v1.3.6 + libmatroska v1.4.9
  13. Cover                                    : Yes
  14. Attachments                              : small_cover_land.jpg / cover.jpg / cover_land.jpg / small_cover.jpg
  15.  
  16. Video
  17. ID                                       : 1
  18. Format                                   : AVC
  19. Format/Info                              : Advanced Video Codec
  20. Format profile                           : High@L4.1
  21. Format settings                          : CABAC / 4 Ref Frames
  22. Format settings, CABAC                   : Yes
  23. Format settings, Reference frames        : 4 frames
  24. Codec ID                                 : V_MPEG4/ISO/AVC
  25. Duration                                 : 2 h 7 min
  26. Bit rate                                 : 14.0 Mb/s
  27. Width                                    : 1 920 pixels
  28. Height                                   : 804 pixels
  29. Display aspect ratio                     : 2.40:1
  30. Frame rate mode                          : Constant
  31. Frame rate                               : 23.976 (24000/1001) FPS
  32. Color space                              : YUV
  33. Chroma subsampling                       : 4:2:0
  34. Bit depth                                : 8 bits
  35. Scan type                                : Progressive
  36. Bits/(Pixel*Frame)                       : 0.378
  37. Stream size                              : 12.4 GiB (88%)
  38. Title                                    : ELEKTRI4KA.UNIONGANG - CHD
  39. Writing library                          : x264 core 157 r2867+150 7e91e0e t_mod_Custom_2 [8-bit@all X86_64]
  40. Encoding settings                        : cabac=1 / ref=4 / deblock=1:-3:-3 / analyse=0x3:0x133 / me=umh / subme=11 / psy=1 / fade_compensate=0.00 / psy_rd=0.90:0.10 / mixed_ref=1 / me_range=64 / chroma_me=1 / trellis=2 / 8x8dct=1 / cqm=0 / deadzone=21,11 / fast_pskip=0 / chroma_qp_offset=-4 / threads=25 / lookahead_threads=4 / sliced_threads=0 / nr=0 / decimate=1 / interlaced=0 / bluray_compat=0 / constrained_intra=0 / fgo=0 / bframes=8 / b_pyramid=2 / b_adapt=2 / b_bias=0 / direct=3 / weightb=1 / open_gop=0 / weightp=2 / keyint=250 / keyint_min=23 / scenecut=40 / intra_refresh=0 / rc_lookahead=60 / rc=crf / mbtree=0 / crf=18.0000 / qcomp=0.70 / qpmin=0:0:0 / qpmax=69:69:69 / qpstep=4 / vbv_maxrate=35000 / vbv_bufsize=35000 / crf_max=0.0 / nal_hrd=none / filler=0 / ip_ratio=1.40 / pb_ratio=1.30 / aq=3:1.00 / aq-sensitivity=10.00 / aq-factor=1.00:1.00:1.00 / aq2=0 / aq3=0
  41. Language                                 : Chinese
  42. Default                                  : Yes
  43. Forced                                   : No
  44.  
  45. Audio #1
  46. ID                                       : 2
  47. Format                                   : AC-3
  48. Format/Info                              : Audio Coding 3
  49. Commercial name                          : Dolby Digital
  50. Codec ID                                 : A_AC3
  51. Duration                                 : 2 h 7 min
  52. Bit rate mode                            : Constant
  53. Bit rate                                 : 448 kb/s
  54. Channel(s)                               : 6 channels
  55. Channel layout                           : L R C LFE Ls Rs
  56. Sampling rate                            : 48.0 kHz
  57. Frame rate                               : 31.250 FPS (1536 SPF)
  58. Compression mode                         : Lossy
  59. Stream size                              : 407 MiB (3%)
  60. Title                                    : MVO - HDRezka
  61. Language                                 : Russian
  62. Service kind                             : Complete Main
  63. Default                                  : Yes
  64. Forced                                   : No
  65.  
  66. Audio #2
  67. ID                                       : 3
  68. Format                                   : DTS
  69. Format/Info                              : Digital Theater Systems
  70. Codec ID                                 : A_DTS
  71. Duration                                 : 2 h 7 min
  72. Bit rate mode                            : Constant
  73. Bit rate                                 : 1 509 kb/s
  74. Channel(s)                               : 6 channels
  75. Channel layout                           : C L R Ls Rs LFE
  76. Sampling rate                            : 48.0 kHz
  77. Frame rate                               : 93.750 FPS (512 SPF)
  78. Bit depth                                : 16 bits
  79. Compression mode                         : Lossy
  80. Stream size                              : 1.34 GiB (9%)
  81. Title                                    : English - DTS
  82. Language                                 : English
  83. Default                                  : No
  84. Forced                                   : No
  85.  
  86. Text #1
  87. ID                                       : 4
  88. Format                                   : UTF-8
  89. Codec ID                                 : S_TEXT/UTF8
  90. Codec ID/Info                            : UTF-8 Plain Text
  91. Duration                                 : 2 h 0 min
  92. Bit rate                                 : 3 b/s
  93. Count of elements                        : 39
  94. Stream size                              : 2.88 KiB (0%)
  95. Title                                    : Forced
  96. Language                                 : Russian
  97. Default                                  : Yes
  98. Forced                                   : No
  99.  
  100. Text #2
  101. ID                                       : 5
  102. Format                                   : UTF-8
  103. Codec ID                                 : S_TEXT/UTF8
  104. Codec ID/Info                            : UTF-8 Plain Text
  105. Duration                                 : 1 h 59 min
  106. Bit rate                                 : 67 b/s
  107. Count of elements                        : 1681
  108. Stream size                              : 58.9 KiB (0%)
  109. Title                                    : Full
  110. Language                                 : English
  111. Default                                  : No
  112. Forced                                   : No
  113.  
  114. Text #3
  115. ID                                       : 6
  116. Format                                   : UTF-8
  117. Codec ID                                 : S_TEXT/UTF8
  118. Codec ID/Info                            : UTF-8 Plain Text
  119. Duration                                 : 2 h 1 min
  120. Bit rate                                 : 70 b/s
  121. Count of elements                        : 1781
  122. Stream size                              : 62.7 KiB (0%)
  123. Title                                    : SDH
  124. Language                                 : English
  125. Default                                  : No
  126. Forced                                   : No
  127.  
  128. Menu
  129. 00:00:00.000                             : en:Chapter 01
  130. 00:10:08.190                             : en:Chapter 02
  131. 00:18:18.430                             : en:Chapter 03
  132. 00:28:20.448                             : en:Chapter 04
  133. 00:36:48.956                             : en:Chapter 05
  134. 00:44:45.891                             : en:Chapter 06
  135. 00:50:17.055                             : en:Chapter 07
  136. 01:04:17.395                             : en:Chapter 08
  137. 01:08:46.080                             : en:Chapter 09
  138. 01:17:23.639                             : en:Chapter 10
  139. 01:23:51.151                             : en:Chapter 11
  140. 01:25:31.668                             : en:Chapter 12
  141. 01:31:40.995                             : en:Chapter 13
  142. 01:36:14.977                             : en:Chapter 14
  143. 01:38:55.971                             : en:Chapter 15
  144. 01:42:27.391                             : en:Chapter 16
  145. 01:45:11.179                             : en:Chapter 17
  146. 01:50:32.083                             : en:Chapter 18
  147. 02:00:16.584                             : en:Chapter 19
  148. 02:02:02.565                             : en:Chapter 20
RAW Paste Data
We use cookies for various purposes including analytics. By continuing to use Pastebin, you agree to our use of cookies as described in the Cookies Policy. OK, I Understand
Top