iMN0

Transporter.2.2005.BluRay.1080p.x264.DTS-SNAHP.mkv

Jul 9th, 2021
78
Never
Not a member of Pastebin yet? Sign Up, it unlocks many cool features!
  1. General
  2. Unique ID : 218624036670666275501847690473186141640 (0xA47975378999509C860465B0445225C8)
  3. Complete name : Transporter.2.2005.BluRay.1080p.x264.DTS-SNAHP.mkv
  4. Format : Matroska
  5. Format version : Version 2
  6. File size : 10.4 GiB
  7. Duration : 1 h 27 min
  8. Overall bit rate : 17.0 Mb/s
  9. Encoded date : UTC 2010-09-05 10:14:16
  10. Writing application : mkvmerge v3.4.0 ('Rapunzel') built on May 15 2010 09:38:20
  11. Writing library : libebml v0.8.0 + libmatroska v0.9.0
  12.  
  13. Video
  14. ID : 1
  15. Format : AVC
  16. Format/Info : Advanced Video Codec
  17. Format profile : High@L4.1
  18. Format settings : CABAC / 5 Ref Frames
  19. Format settings, CABAC : Yes
  20. Format settings, Reference frames : 5 frames
  21. Codec ID : V_MPEG4/ISO/AVC
  22. Duration : 1 h 27 min
  23. Bit rate : 15.5 Mb/s
  24. Width : 1 920 pixels
  25. Height : 816 pixels
  26. Display aspect ratio : 2.35:1
  27. Frame rate mode : Constant
  28. Frame rate : 23.976 FPS
  29. Color space : YUV
  30. Chroma subsampling : 4:2:0
  31. Bit depth : 8 bits
  32. Scan type : Progressive
  33. Bits/(Pixel*Frame) : 0.413
  34. Stream size : 9.28 GiB (89%)
  35. Writing library : x264 core 104 r1688 0b36c6d
  36. Encoding settings : cabac=1 / ref=5 / deblock=1:-3:-3 / analyse=0x3:0x113 / me=tesa / subme=10 / psy=1 / psy_rd=0.90:0.00 / mixed_ref=1 / me_range=32 / chroma_me=1 / trellis=2 / 8x8dct=1 / cqm=0 / deadzone=21,11 / fast_pskip=0 / chroma_qp_offset=-2 / threads=6 / sliced_threads=0 / nr=0 / decimate=0 / interlaced=0 / constrained_intra=0 / bframes=10 / b_pyramid=2 / b_adapt=2 / b_bias=0 / direct=3 / weightb=1 / open_gop=0 / weightp=2 / keyint=250 / keyint_min=23 / scenecut=40 / intra_refresh=0 / rc_lookahead=50 / rc=2pass / mbtree=1 / bitrate=15500 / ratetol=1.0 / qcomp=0.60 / qpmin=10 / qpmax=51 / qpstep=4 / cplxblur=20.0 / qblur=0.5 / vbv_maxrate=38000 / vbv_bufsize=30000 / ip_ratio=1.40 / aq=1:0.60 / nal_hrd=none
  37. Language : English
  38. Default : No
  39. Forced : No
  40.  
  41. Audio
  42. ID : 2
  43. Format : DTS
  44. Format/Info : Digital Theater Systems
  45. Codec ID : A_DTS
  46. Duration : 1 h 27 min
  47. Bit rate mode : Constant
  48. Bit rate : 1 509 kb/s
  49. Channel(s) : 6 channels
  50. Channel layout : C L R Ls Rs LFE
  51. Sampling rate : 48.0 kHz
  52. Frame rate : 93.750 FPS (512 SPF)
  53. Bit depth : 24 bits
  54. Compression mode : Lossy
  55. Stream size : 946 MiB (9%)
  56. Title : 5.1 DTS 1536 kbps
  57. Language : English
  58. Default : Yes
  59. Forced : No
  60.  
  61. Text #1
  62. ID : 3
  63. Format : UTF-8
  64. Codec ID : S_TEXT/UTF8
  65. Codec ID/Info : UTF-8 Plain Text
  66. Language : English
  67. Default : Yes
  68. Forced : No
  69.  
  70. Text #2
  71. ID : 4
  72. Format : UTF-8
  73. Codec ID : S_TEXT/UTF8
  74. Codec ID/Info : UTF-8 Plain Text
  75. Language : Spanish
  76. Default : No
  77. Forced : No
  78.  
  79. Text #3
  80. ID : 5
  81. Format : UTF-8
  82. Codec ID : S_TEXT/UTF8
  83. Codec ID/Info : UTF-8 Plain Text
  84. Language : Portuguese
  85. Default : No
  86. Forced : No
  87.  
  88. Text #4
  89. ID : 6
  90. Format : UTF-8
  91. Codec ID : S_TEXT/UTF8
  92. Codec ID/Info : UTF-8 Plain Text
  93. Language : Czech
  94. Default : No
  95. Forced : No
  96.  
  97. Menu
  98. 00:00:00.000 : en:00:00:00.000
  99. 00:01:10.028 : en:00:01:10.028
  100. 00:03:38.844 : en:00:03:38.844
  101. 00:11:08.251 : en:00:11:08.251
  102. 00:13:01.531 : en:00:13:01.531
  103. 00:15:04.612 : en:00:15:04.612
  104. 00:23:14.935 : en:00:23:14.935
  105. 00:25:51.717 : en:00:25:51.717
  106. 00:29:22.469 : en:00:29:22.469
  107. 00:30:19.818 : en:00:30:19.818
  108. 00:34:25.188 : en:00:34:25.188
  109. 00:39:12.559 : en:00:39:12.559
  110. 00:43:50.378 : en:00:43:50.378
  111. 00:47:53.162 : en:00:47:53.162
  112. 00:50:17.973 : en:00:50:17.973
  113. 00:55:46.635 : en:00:55:46.635
  114. 01:00:08.146 : en:01:00:08.146
  115. 01:04:10.513 : en:01:04:10.513
  116. 01:09:18.529 : en:01:09:18.529
  117. 01:11:45.218 : en:01:11:45.218
  118. 01:14:27.088 : en:01:14:27.088
  119. 01:17:08.791 : en:01:17:08.791
  120. 01:18:28.120 : en:01:18:28.120
  121. 01:19:54.498 : en:01:19:54.498
RAW Paste Data