Guest User

E01

a guest
Jan 24th, 2018
303
Never
Not a member of Pastebin yet? Sign Up, it unlocks many cool features!
  1. General
  2. Unique ID : 186943809792276008141266962525994381645 (0x8CA411704A8B8FCEBB7BF17C7D50714D)
  3. Complete name : [EncoderAnon & xPearse] Hunter x Hunter 1999 - Episode 01 [English] [Dual Audio].mkv
  4. Format : Matroska
  5. Format version : Version 4 / Version 2
  6. File size : 294 MiB
  7. Duration : 23 min 9 s
  8. Overall bit rate : 1 776 kb/s
  9. Encoded date : UTC 2017-08-10 18:42:00 / UTC 2017-07-25T16:00:52Z
  10. Writing application : mkvmerge v9.5.0 ('Quiet Fire') 64bit
  11. Writing library : libebml v1.3.4 + libmatroska v1.4.5 / Lavf57.7.2
  12.  
  13. Video
  14. ID : 1
  15. Format : AVC
  16. Format/Info : Advanced Video Codec
  17. Format profile : High@L3.2
  18. Format settings : CABAC / 15 Ref Frames
  19. Format settings, CABAC : Yes
  20. Format settings, RefFrames : 15 frames
  21. Codec ID : V_MPEG4/ISO/AVC
  22. Duration : 23 min 9 s
  23. Bit rate : 1 388 kb/s
  24. Width : 640 pixels
  25. Height : 480 pixels
  26. Display aspect ratio : 4:3
  27. Frame rate mode : Constant
  28. Frame rate : 23.976 (24000/1001) FPS
  29. Color space : YUV
  30. Chroma subsampling : 4:2:0
  31. Bit depth : 8 bits
  32. Scan type : Progressive
  33. Bits/(Pixel*Frame) : 0.188
  34. Stream size : 230 MiB (78%)
  35. Writing library : x264 core 148 r2708 86b7198
  36. Encoding settings : cabac=1 / ref=16 / deblock=1:0:0 / analyse=0x3:0x113 / me=umh / subme=10 / psy=1 / psy_rd=0.90:0.00 / mixed_ref=1 / me_range=50 / chroma_me=1 / trellis=2 / 8x8dct=1 / cqm=0 / deadzone=21,11 / fast_pskip=1 / chroma_qp_offset=-2 / threads=6 / lookahead_threads=1 / sliced_threads=0 / nr=0 / decimate=0 / interlaced=0 / bluray_compat=0 / constrained_intra=0 / bframes=16 / b_pyramid=1 / b_adapt=2 / b_bias=0 / direct=1 / weightb=1 / open_gop=0 / weightp=2 / keyint=240 / keyint_min=24 / scenecut=40 / intra_refresh=0 / rc_lookahead=40 / rc=crf / mbtree=1 / crf=17.0 / qcomp=0.60 / qpmin=0 / qpmax=69 / qpstep=4 / ip_ratio=1.40 / aq=1:0.80
  37. Default : Yes
  38. Forced : No
  39. Color range : Limited
  40. Color primaries : BT.601 NTSC
  41. Transfer characteristics : BT.709
  42. Matrix coefficients : BT.601
  43. Statistics Tags Issue : mkvmerge v9.5.0 ('Quiet Fire') 64bit 2017-08-10 18:42:00 / mkvmerge v9.5.0 ('Quiet Fire') 64bit 2017-08-10 18:42:00 / UTC 2017-07-25T16:00:52Z
  44. FromStats_BitRate : 1421547
  45. FromStats_Duration : 00:23:09.388000000
  46. FromStats_FrameCount : 33312
  47. FromStats_StreamSize : 246885097
  48.  
  49. Audio #1
  50. ID : 3
  51. Format : AC-3
  52. Format/Info : Audio Coding 3
  53. Codec ID : A_AC3
  54. Duration : 23 min 9 s
  55. Bit rate mode : Constant
  56. Bit rate : 192 kb/s
  57. Channel(s) : 2 channels
  58. Channel positions : Front: L R
  59. Sampling rate : 48.0 kHz
  60. Frame rate : 31.250 FPS (1536 SPF)
  61. Bit depth : 16 bits
  62. Compression mode : Lossy
  63. Delay relative to video : -21 ms
  64. Stream size : 31.8 MiB (11%)
  65. Title : Japanese
  66. Language : Japanese
  67. Service kind : Complete Main
  68. Default : Yes
  69. Forced : No
  70. Statistics Tags Issue : mkvmerge v9.5.0 ('Quiet Fire') 64bit 2017-08-10 18:42:00 / mkvmerge v9.5.0 ('Quiet Fire') 64bit 2017-08-10 18:42:00 / UTC 2017-07-25T16:00:52Z
  71. FromStats_BitRate : 192000
  72. FromStats_Duration : 00:23:09.344000000
  73. FromStats_FrameCount : 43417
  74. FromStats_StreamSize : 33344256
  75.  
  76. Audio #2
  77. ID : 4
  78. Format : MPEG Audio
  79. Format version : Version 1
  80. Format profile : Layer 3
  81. Codec ID : A_MPEG/L3
  82. Codec ID/Hint : MP3
  83. Duration : 23 min 8 s
  84. Bit rate mode : Constant
  85. Bit rate : 160 kb/s
  86. Channel(s) : 2 channels
  87. Sampling rate : 48.0 kHz
  88. Frame rate : 41.667 FPS (1152 SPF)
  89. Compression mode : Lossy
  90. Delay relative to video : 179 ms
  91. Stream size : 26.5 MiB (9%)
  92. Title : English
  93. Writing library : LAME3.99r
  94. Encoding settings : -m s -V 4 -q 3 -lowpass 20.5 -b 160
  95. Language : English
  96. Default : No
  97. Forced : No
  98. Statistics Tags Issue : mkvmerge v9.5.0 ('Quiet Fire') 64bit 2017-08-10 18:42:00 / mkvmerge v9.5.0 ('Quiet Fire') 64bit 2017-08-10 18:42:00 / UTC 2017-07-25T16:00:52Z
  99. FromStats_BitRate : 160000
  100. FromStats_Duration : 00:23:09.000000000
  101. FromStats_FrameCount : 57875
  102. FromStats_StreamSize : 27780000
  103.  
  104. Text
  105. ID : 2
  106. Format : ASS
  107. Codec ID : S_TEXT/ASS
  108. Codec ID/Info : Advanced Sub Station Alpha
  109. Compression mode : Lossless
  110. Title : English
  111. Language : English
  112. Default : Yes
  113. Forced : Yes
  114. Statistics Tags Issue : mkvmerge v9.5.0 ('Quiet Fire') 64bit 2017-08-10 18:42:00 / mkvmerge v9.5.0 ('Quiet Fire') 64bit 2017-08-10 18:42:00 / UTC 2017-07-25T16:00:52Z
  115. FromStats_BitRate : 85
  116. FromStats_Duration : 00:23:01.500000000
  117. FromStats_FrameCount : 269
  118. FromStats_StreamSize : 14747
  119.  
  120. Menu
  121. 00:00:00.000 : :Opening Credits
  122. 00:01:06.108 : :Hunter x Hunter 01 - Part 1
  123. 00:11:24.809 : :Hunter x Hunter 01 - Part 2
  124. 00:21:33.334 : :Hunter x Hunter 02 - Preview
  125. 00:21:49.266 : :Ending Credits
RAW Paste Data