SHARE
TWEET

China.Girl.1987.1080p.BluRay.REMUX.AVC.DTS.2.0-EPSiLON

a guest Jun 15th, 2019 29 Never
Not a member of Pastebin yet? Sign Up, it unlocks many cool features!
  1. General
  2. Complete name                            : China.Girl.1987.1080p.BluRay.REMUX.AVC.DTS.2.0-EPSiLON.mkv
  3. Format                                   : Matroska
  4. Format version                           : Version 4
  5. File size                                : 17.5 GiB
  6. Duration                                 : 1 h 30 min
  7. Overall bit rate mode                    : Variable
  8. Overall bit rate                         : 27.7 Mb/s
  9. Encoded date                             : UTC 2019-06-03 21:45:57
  10. Writing application                      : mkvmerge v34.0.0 ('Sight and Seen') 64-bit
  11. Writing library                          : libebml v1.3.7 + libmatroska v1.5.0
  12.  
  13. Video
  14. ID                                       : 1
  15. Format                                   : AVC
  16. Format/Info                              : Advanced Video Codec
  17. Format profile                           : High@L4.1
  18. Format settings                          : CABAC / 2 Ref Frames
  19. Format settings, CABAC                   : Yes
  20. Format settings, Reference frames        : 2 frames
  21. Codec ID                                 : V_MPEG4/ISO/AVC
  22. Duration                                 : 1 h 30 min
  23. Bit rate mode                            : Variable
  24. Bit rate                                 : 26.9 Mb/s
  25. Width                                    : 1 920 pixels
  26. Height                                   : 1 080 pixels
  27. Display aspect ratio                     : 16:9
  28. Frame rate mode                          : Constant
  29. Frame rate                               : 23.976 (24000/1001) FPS
  30. Color space                              : YUV
  31. Chroma subsampling                       : 4:2:0
  32. Bit depth                                : 8 bits
  33. Scan type                                : Progressive
  34. Bits/(Pixel*Frame)                       : 0.541
  35. Stream size                              : 17.1 GiB (97%)
  36. Title                                    : MPEG-4 AVC Video / 26916 kbps / 1080p / 23.976 fps / 16:9 / High Profile 4.1
  37. Language                                 : English
  38. Default                                  : Yes
  39. Forced                                   : No
  40.  
  41. Audio
  42. ID                                       : 2
  43. Format                                   : DTS
  44. Format/Info                              : Digital Theater Systems
  45. Codec ID                                 : A_DTS
  46. Duration                                 : 1 h 30 min
  47. Bit rate mode                            : Constant
  48. Bit rate                                 : 768 kb/s
  49. Channel(s)                               : 2 channels
  50. Channel layout                           : L R
  51. Sampling rate                            : 48.0 kHz
  52. Frame rate                               : 93.750 FPS (512 SPF)
  53. Bit depth                                : 24 bits
  54. Compression mode                         : Lossy
  55. Stream size                              : 498 MiB (3%)
  56. Title                                    : DTS Audio / 2.0 / 48 kHz /   768 kbps / 16-bit
  57. Default                                  : Yes
  58. Forced                                   : No
  59.  
  60. Text
  61. ID                                       : 3
  62. Format                                   : PGS
  63. Codec ID                                 : S_HDMV/PGS
  64. Codec ID/Info                            : Picture based subtitle format used on BDs/HD-DVDs
  65. Duration                                 : 1 h 23 min
  66. Bit rate                                 : 16.3 kb/s
  67. Count of elements                        : 944
  68. Stream size                              : 9.73 MiB (0%)
  69. Language                                 : French
  70. Default                                  : No
  71. Forced                                   : No
  72.  
  73. Menu
  74. 00:00:00.000                             : en:Chapitre 01
  75. 00:03:32.754                             : en:Chapitre 02
  76. 00:13:05.952                             : en:Chapitre 03
  77. 00:18:36.782                             : en:Chapitre 04
  78. 00:23:46.008                             : en:Chapitre 05
  79. 00:31:19.169                             : en:Chapitre 06
  80. 00:37:14.858                             : en:Chapitre 07
  81. 00:40:50.406                             : en:Chapitre 08
  82. 00:47:34.769                             : en:Chapitre 09
  83. 00:53:02.763                             : en:Chapitre 10
  84. 00:57:27.778                             : en:Chapitre 11
  85. 01:05:34.055                             : en:Chapitre 12
  86. 01:09:09.312                             : en:Chapitre 13
  87. 01:17:22.096                             : en:Chapitre 14
  88. 01:21:06.278                             : en:Chapitre 15
  89. 01:27:28.118                             : en:Chapitre 16
RAW Paste Data
We use cookies for various purposes including analytics. By continuing to use Pastebin, you agree to our use of cookies as described in the Cookies Policy. OK, I Understand
Not a member of Pastebin yet?
Sign Up, it unlocks many cool features!
 
Top