Guest User

Untitled

a guest
Oct 9th, 2019
120
Never
Not a member of Pastebin yet? Sign Up, it unlocks many cool features!
  1. General
  2. Format : Matroska
  3. Format version : Version 4 / Version 2
  4. File size : 3.54 GiB
  5. Duration : 1 h 53 min
  6. Overall bit rate : 4 452 kb/s
  7. Movie name : X-Men Dark Phoenix (2019)
  8. Encoded date : UTC 2019-10-09 14:49:48
  9. Writing application : mkvmerge v38.0.0 ('The Silent Type') 64-bit
  10. Writing library : libebml v1.3.9 + libmatroska v1.5.2
  11.  
  12. Video
  13. ID : 1
  14. Format : AVC
  15. Format/Info : Advanced Video Codec
  16. Format profile : High@L4.1
  17. Format settings, CABAC : Yes
  18. Format settings, RefFrames : 4 frames
  19. Codec ID : V_MPEG4/ISO/AVC
  20. Duration : 1 h 53 min
  21. Bit rate : 3 618 kb/s
  22. Width : 1 920 pixels
  23. Height : 804 pixels
  24. Display aspect ratio : 2.40:1
  25. Frame rate mode : Constant
  26. Frame rate : 23.976 (24000/1001) FPS
  27. Color space : YUV
  28. Chroma subsampling : 4:2:0
  29. Bit depth : 8 bits
  30. Scan type : Progressive
  31. Bits/(Pixel*Frame) : 0.098
  32. Stream size : 2.88 GiB (81%)
  33. Writing library : x264 core 157 r2935 545de2f
  34. Encoding settings : cabac=1 / ref=3 / deblock=1:0:0 / analyse=0x3:0x113 / me=hex / subme=7 / psy=1 / psy_rd=1.00:0.00 / mixed_ref=1 / me_range=16 / chroma_me=1 / trellis=1 / 8x8dct=1 / cqm=0 / deadzone=21,11 / fast_pskip=1 / chroma_qp_offset=-2 / threads=4 / lookahead_threads=1 / sliced_threads=0 / nr=0 / decimate=1 / interlaced=0 / bluray_compat=0 / constrained_intra=0 / bframes=3 / b_pyramid=2 / b_adapt=1 / b_bias=0 / direct=1 / weightb=1 / open_gop=0 / weightp=2 / keyint=240 / keyint_min=23 / scenecut=40 / intra_refresh=0 / rc_lookahead=40 / rc=crf / mbtree=1 / crf=20.0 / qcomp=0.60 / qpmin=0 / qpmax=69 / qpstep=4 / vbv_maxrate=40000 / vbv_bufsize=30000 / crf_max=0.0 / nal_hrd=none / filler=0 / ip_ratio=1.40 / aq=1:1.00
  35. Default : Yes
  36. Forced : No
  37.  
  38. Audio #1
  39. ID : 2
  40. Format : AC-3
  41. Format/Info : Audio Coding 3
  42. Format settings, Endianness : Big
  43. Codec ID : A_AC3
  44. Duration : 1 h 53 min
  45. Bit rate mode : Constant
  46. Bit rate : 384 kb/s
  47. Channel(s) : 6 channels
  48. Channel positions : Front: L C R, Side: L R, LFE
  49. Sampling rate : 48.0 kHz
  50. Frame rate : 31.250 FPS (1536 SPF)
  51. Bit depth : 16 bits
  52. Compression mode : Lossy
  53. Stream size : 313 MiB (9%)
  54. Language : Spanish
  55. Service kind : Complete Main
  56. Default : Yes
  57. Forced : No
  58.  
  59. Audio #2
  60. ID : 3
  61. Format : AC-3
  62. Format/Info : Audio Coding 3
  63. Format settings, Endianness : Big
  64. Codec ID : A_AC3
  65. Duration : 1 h 53 min
  66. Bit rate mode : Constant
  67. Bit rate : 448 kb/s
  68. Channel(s) : 6 channels
  69. Channel positions : Front: L C R, Side: L R, LFE
  70. Sampling rate : 48.0 kHz
  71. Frame rate : 31.250 FPS (1536 SPF)
  72. Bit depth : 16 bits
  73. Compression mode : Lossy
  74. Stream size : 365 MiB (10%)
  75. Language : English
  76. Service kind : Complete Main
  77. Default : No
  78. Forced : No
  79.  
  80. Text #1
  81. ID : 4
  82. Format : UTF-8
  83. Codec ID : S_TEXT/UTF8
  84. Codec ID/Info : UTF-8 Plain Text
  85. Bit rate : 0 b/s
  86. Count of elements : 0
  87. Stream size : 0.00 Byte (0%)
  88. Language : Spanish
  89. Default : Yes
  90. Forced : No
  91.  
  92. Text #2
  93. ID : 5
  94. Format : UTF-8
  95. Codec ID : S_TEXT/UTF8
  96. Codec ID/Info : UTF-8 Plain Text
  97. Bit rate : 0 b/s
  98. Count of elements : 0
  99. Stream size : 0.00 Byte (0%)
  100. Language : English
  101. Default : No
  102. Forced : No
  103.  
  104. Menu
  105. 00:00:00.000 : :Capítulo 01
  106. 00:03:28.875 : :Capítulo 02
  107. 00:07:34.620 : :Capítulo 03
  108. 00:11:42.201 : :Capítulo 04
  109. 00:15:44.109 : :Capítulo 05
  110. 00:18:37.407 : :Capítulo 06
  111. 00:25:24.481 : :Capítulo 07
  112. 00:31:40.356 : :Capítulo 08
  113. 00:34:19.307 : :Capítulo 09
  114. 00:40:07.446 : :Capítulo 10
  115. 00:44:36.090 : :Capítulo 11
  116. 00:49:07.778 : :Capítulo 12
  117. 00:55:38.168 : :Capítulo 13
  118. 00:58:57.408 : :Capítulo 14
  119. 01:02:57.190 : :Capítulo 15
  120. 01:10:40.110 : :Capítulo 16
  121. 01:13:42.417 : :Capítulo 17
  122. 01:19:33.477 : :Capítulo 18
  123. 01:22:35.700 : :Capítulo 19
  124. 01:25:49.060 : :Capítulo 20
  125. 01:30:38.349 : :Capítulo 21
  126. 01:32:48.187 : :Capítulo 22
  127. 01:37:59.623 : :Capítulo 23
  128. 01:45:01.044 : :Capítulo 24
RAW Paste Data