Guest User

Untitled

a guest
Nov 21st, 2020
46
Never
Not a member of Pastebin yet? Sign Up, it unlocks many cool features!
  1. General
  2. Unique ID : 26445572193394021429332443629914067518 (0x13E53B605026FB78433F9310CC92923E)
  3. Complete name : D:\Video111\Mad.Max.1979.BDREMUX.2160p.HDR.seleZen.mkv
  4. Format : Matroska
  5. Format version : Version 4
  6. File size : 57.1 GiB
  7. Duration : 1 h 33 min
  8. Overall bit rate mode : Variable
  9. Overall bit rate : 87.6 Mb/s
  10. Movie name : Mad Max 1979 4K UHD From seleZen
  11. Encoded date : UTC 2020-11-21 12:40:42
  12. Writing application : mkvmerge v40.0.0 ('Old Town Road + Pony') 64-bit
  13. Writing library : libebml v1.3.9 + libmatroska v1.5.2
  14.  
  15. Video
  16. ID : 1
  17. Format : HEVC
  18. Format/Info : High Efficiency Video Coding
  19. Format profile : Main 10@L5.1@High
  20. HDR format : SMPTE ST 2086, HDR10 compatible
  21. Codec ID : V_MPEGH/ISO/HEVC
  22. Duration : 1 h 33 min
  23. Bit rate : 79.5 Mb/s
  24. Width : 3 840 pixels
  25. Height : 2 160 pixels
  26. Display aspect ratio : 16:9
  27. Frame rate mode : Constant
  28. Frame rate : 23.976 (24000/1001) FPS
  29. Color space : YUV
  30. Chroma subsampling : 4:2:0 (Type 2)
  31. Bit depth : 10 bits
  32. Bits/(Pixel*Frame) : 0.400
  33. Stream size : 51.7 GiB (91%)
  34. Language : English
  35. Default : Yes
  36. Forced : No
  37. Color range : Limited
  38. Color primaries : BT.2020
  39. Transfer characteristics : PQ
  40. Matrix coefficients : BT.2020 non-constant
  41. Mastering display color pri : Display P3
  42. Mastering display luminance : min: 0.0001 cd/m2, max: 1000 cd/m2
  43.  
  44. Audio #1
  45. ID : 2
  46. Format : AC-3
  47. Format/Info : Audio Coding 3
  48. Commercial name : Dolby Digital
  49. Codec ID : A_AC3
  50. Duration : 1 h 33 min
  51. Bit rate mode : Constant
  52. Bit rate : 192 kb/s
  53. Channel(s) : 1 channel
  54. Channel layout : C
  55. Sampling rate : 48.0 kHz
  56. Frame rate : 31.250 FPS (1536 SPF)
  57. Compression mode : Lossy
  58. Stream size : 128 MiB (0%)
  59. Title : Dub [Blu-Ray]
  60. Language : Russian
  61. Service kind : Complete Main
  62. Default : Yes
  63. Forced : Yes
  64.  
  65. Audio #2
  66. ID : 3
  67. Format : AC-3
  68. Format/Info : Audio Coding 3
  69. Commercial name : Dolby Digital
  70. Codec ID : A_AC3
  71. Duration : 1 h 33 min
  72. Bit rate mode : Constant
  73. Bit rate : 448 kb/s
  74. Channel(s) : 6 channels
  75. Channel layout : L R C LFE Ls Rs
  76. Sampling rate : 48.0 kHz
  77. Frame rate : 31.250 FPS (1536 SPF)
  78. Compression mode : Lossy
  79. Stream size : 299 MiB (1%)
  80. Title : Dub
  81. Language : Russian
  82. Service kind : Complete Main
  83. Default : No
  84. Forced : No
  85.  
  86. Audio #3
  87. ID : 4
  88. Format : AC-3
  89. Format/Info : Audio Coding 3
  90. Commercial name : Dolby Digital
  91. Codec ID : A_AC3
  92. Duration : 1 h 33 min
  93. Bit rate mode : Constant
  94. Bit rate : 448 kb/s
  95. Channel(s) : 6 channels
  96. Channel layout : L R C LFE Ls Rs
  97. Sampling rate : 48.0 kHz
  98. Frame rate : 31.250 FPS (1536 SPF)
  99. Compression mode : Lossy
  100. Stream size : 299 MiB (1%)
  101. Title : MVO [Киномания]
  102. Language : Russian
  103. Service kind : Complete Main
  104. Default : No
  105. Forced : No
  106.  
  107. Audio #4
  108. ID : 5
  109. Format : DTS
  110. Format/Info : Digital Theater Systems
  111. Codec ID : A_DTS
  112. Duration : 1 h 33 min
  113. Bit rate mode : Constant
  114. Bit rate : 755 kb/s
  115. Channel(s) : 6 channels
  116. Channel layout : C L R Ls Rs LFE
  117. Sampling rate : 48.0 kHz
  118. Frame rate : 93.750 FPS (512 SPF)
  119. Bit depth : 24 bits
  120. Compression mode : Lossy
  121. Stream size : 503 MiB (1%)
  122. Title : MVO
  123. Language : Russian
  124. Default : No
  125. Forced : No
  126.  
  127. Audio #5
  128. ID : 6
  129. Format : AC-3
  130. Format/Info : Audio Coding 3
  131. Commercial name : Dolby Digital
  132. Codec ID : A_AC3
  133. Duration : 1 h 33 min
  134. Bit rate mode : Constant
  135. Bit rate : 192 kb/s
  136. Channel(s) : 2 channels
  137. Channel layout : L R
  138. Sampling rate : 48.0 kHz
  139. Frame rate : 31.250 FPS (1536 SPF)
  140. Compression mode : Lossy
  141. Stream size : 128 MiB (0%)
  142. Title : MVO [НТВ+]
  143. Language : Russian
  144. Service kind : Complete Main
  145. Default : No
  146. Forced : No
  147.  
  148. Audio #6
  149. ID : 7
  150. Format : AC-3
  151. Format/Info : Audio Coding 3
  152. Commercial name : Dolby Digital
  153. Codec ID : A_AC3
  154. Duration : 1 h 33 min
  155. Bit rate mode : Constant
  156. Bit rate : 192 kb/s
  157. Channel(s) : 2 channels
  158. Channel layout : L R
  159. Sampling rate : 48.0 kHz
  160. Frame rate : 31.250 FPS (1536 SPF)
  161. Compression mode : Lossy
  162. Stream size : 128 MiB (0%)
  163. Title : MVO [Варус Видео]
  164. Language : Russian
  165. Service kind : Complete Main
  166. Default : No
  167. Forced : No
  168.  
  169. Audio #7
  170. ID : 8
  171. Format : DTS
  172. Format/Info : Digital Theater Systems
  173. Codec ID : A_DTS
  174. Duration : 1 h 33 min
  175. Bit rate mode : Constant
  176. Bit rate : 1 510 kb/s
  177. Channel(s) : 6 channels
  178. Channel layout : C L R Ls Rs LFE
  179. Sampling rate : 48.0 kHz
  180. Frame rate : 93.750 FPS (512 SPF)
  181. Bit depth : 24 bits
  182. Compression mode : Lossy
  183. Stream size : 1 007 MiB (2%)
  184. Title : AVO [Михалёв]
  185. Language : Russian
  186. Default : No
  187. Forced : No
  188.  
  189. Audio #8
  190. ID : 9
  191. Format : AC-3
  192. Format/Info : Audio Coding 3
  193. Commercial name : Dolby Digital
  194. Codec ID : A_AC3
  195. Duration : 1 h 33 min
  196. Bit rate mode : Constant
  197. Bit rate : 448 kb/s
  198. Channel(s) : 6 channels
  199. Channel layout : L R C LFE Ls Rs
  200. Sampling rate : 48.0 kHz
  201. Frame rate : 31.250 FPS (1536 SPF)
  202. Compression mode : Lossy
  203. Stream size : 299 MiB (1%)
  204. Title : AVO [Володарский]
  205. Language : Russian
  206. Service kind : Complete Main
  207. Default : No
  208. Forced : No
  209.  
  210. Audio #9
  211. ID : 10
  212. Format : DTS XLL
  213. Format/Info : Digital Theater Systems
  214. Commercial name : DTS-HD Master Audio
  215. Codec ID : A_DTS
  216. Duration : 1 h 33 min
  217. Bit rate mode : Variable
  218. Bit rate : 4 000 kb/s
  219. Channel(s) : 6 channels
  220. Channel layout : C L R Ls Rs LFE
  221. Sampling rate : 48.0 kHz
  222. Frame rate : 93.750 FPS (512 SPF)
  223. Bit depth : 24 bits
  224. Compression mode : Lossless
  225. Stream size : 2.60 GiB (5%)
  226. Title : Original
  227. Language : English
  228. Default : No
  229. Forced : No
  230.  
  231. Text #1
  232. ID : 11
  233. Format : UTF-8
  234. Codec ID : S_TEXT/UTF8
  235. Codec ID/Info : UTF-8 Plain Text
  236. Duration : 1 h 32 min
  237. Bit rate : 49 b/s
  238. Count of elements : 684
  239. Stream size : 33.3 KiB (0%)
  240. Title : Full
  241. Language : Russian
  242. Default : No
  243. Forced : No
  244.  
  245. Text #2
  246. ID : 12
  247. Format : UTF-8
  248. Codec ID : S_TEXT/UTF8
  249. Codec ID/Info : UTF-8 Plain Text
  250. Duration : 1 h 31 min
  251. Bit rate : 40 b/s
  252. Count of elements : 856
  253. Stream size : 27.0 KiB (0%)
  254. Title : SDH
  255. Language : English
  256. Default : No
  257. Forced : No
  258.  
  259. Menu
  260. 00:00:00.000 : en:Глава 01
  261. 00:07:00.337 : en:Глава 02
  262. 00:15:39.480 : en:Глава 03
  263. 00:23:36.832 : en:Глава 04
  264. 00:31:49.282 : en:Глава 05
  265. 00:39:00.213 : en:Глава 06
  266. 00:47:02.403 : en:Глава 07
  267. 00:55:43.549 : en:Глава 08
  268. 01:02:12.854 : en:Глава 09
  269. 01:15:32.611 : en:Глава 10
  270. 01:30:48.443 : en:Глава 11
  271.  
  272.  
RAW Paste Data