daily pastebin goal
90%
SHARE
TWEET

Untitled

piejanssens Aug 31st, 2016 16 Never
Not a member of Pastebin yet? Sign Up, it unlocks many cool features!
  1.  Downloads ./ffplay -codec:v h264_vda Mr.\ Robot.S02E07.1080p.WEB.DL.eps2.5_h4ndshake.sme.mkv
  2. ffplay version N-81422-gd7633ed-tessus Copyright (c) 2003-2016 the FFmpeg developers
  3.   built with Apple LLVM version 7.3.0 (clang-703.0.31)
  4.   configuration: --cc=/usr/bin/clang --prefix=/opt/ffmpeg --as=yasm --extra-version=tessus --enable-avisynth --enable-fontconfig --enable-gpl --enable-libass --enable-libbluray --enable-libfreetype --enable-libgsm --enable-libmodplug --enable-libmp3lame --enable-libopencore-amrnb --enable-libopencore-amrwb --enable-libopus --enable-libschroedinger --enable-libsnappy --enable-libsoxr --enable-libspeex --enable-libtheora --enable-libvidstab --enable-libvo-amrwbenc --enable-libvorbis --enable-libvpx --enable-libwavpack --enable-libx264 --enable-libx265 --enable-libxavs --enable-libxvid --enable-libzmq --enable-version3 --enable-librtmp --enable-ffplay --disable-ffmpeg --disable-ffprobe --disable-ffserver --disable-indev=qtkit --disable-indev=x11grab_xcb
  5.   libavutil      55. 29.100 / 55. 29.100
  6.   libavcodec     57. 54.100 / 57. 54.100
  7.   libavformat    57. 47.101 / 57. 47.101
  8.   libavdevice    57.  0.102 / 57.  0.102
  9.   libavfilter     6. 52.100 /  6. 52.100
  10.   libswscale      4.  1.100 /  4.  1.100
  11.   libswresample   2.  1.100 /  2.  1.100
  12.   libpostproc    54.  0.100 / 54.  0.100
  13. Input #0, matroska,webm, from 'Mr. Robot.S02E07.1080p.WEB.DL.eps2.5_h4ndshake.sme.mkv':
  14.   Metadata:
  15.     encoder         : libebml v1.3.1 + libmatroska v1.4.2
  16.     creation_time   : 2016-08-18 08:14:21
  17.   Duration: 00:48:40.59, start: 0.000000, bitrate: 7823 kb/s
  18.     Stream #0:0: Video: h264 (High), yuv420p(tv, bt709), 1920x1080 [SAR 1:1 DAR 16:9], Closed Captions, 23.98 fps, 23.98 tbr, 1k tbn, 47.95 tbc (default)
  19.     Stream #0:1(eng): Audio: eac3, 48000 Hz, 5.1(side), fltp, 640 kb/s (default)
  20.     Stream #0:2: Video: mjpeg, yuvj444p(pc, bt470bg/unknown/unknown), 120x176, 90k tbr, 90k tbn, 90k tbc
  21.     Metadata:
  22.       filename        : small_cover.jpg
  23.       mimetype        : image/jpeg
  24.     Stream #0:3: Video: mjpeg, yuvj444p(pc, bt470bg/unknown/unknown), 600x882, 90k tbr, 90k tbn, 90k tbc
  25.     Metadata:
  26.       filename        : cover.jpg
  27.       mimetype        : image/jpeg
  28.     Stream #0:4: Video: mjpeg, yuvj444p(pc, bt470bg/unknown/unknown), 1067x600, 90k tbr, 90k tbn, 90k tbc
  29.     Metadata:
  30.       filename        : cover_land.jpg
  31.       mimetype        : image/jpeg
  32.     Stream #0:5: Video: mjpeg, yuvj444p(pc, bt470bg/unknown/unknown), 213x120, 90k tbr, 90k tbn, 90k tbc
  33.     Metadata:
  34.       filename        : small_cover_land.jpg
  35.       mimetype        : image/jpeg
  36. 2016-08-31 21:17:51.837 ffplay[1144:43759] 21:17:51.837 WARNING:  140: This application, or a library it uses, is using the deprecated Carbon Component Manager for hosting Audio Units. Support for this will be removed in a future release. Also, this makes the host incompatible with version 3 audio units. Please transition to the API's in AudioComponent.h.
  37. [1]    1144 segmentation fault  ./ffplay -codec:v h264_vda
RAW Paste Data
We use cookies for various purposes including analytics. By continuing to use Pastebin, you agree to our use of cookies as described in the Cookies Policy. OK, I Understand
 
Top