SHARE
TWEET

Untitled

a guest Feb 27th, 2020 88 Never
Not a member of Pastebin yet? Sign Up, it unlocks many cool features!
  1. General
  2. Format                                   : Matroska
  3. File size                                : 1.37 GB
  4. Duration                                 : 50 min 17 s
  5. Video
  6. ID : 1
  7. Format : AVC
  8. Format/Info : Advanced Video Codec
  9. Format profile : Main@L4
  10. Format settings : CABAC / 3 Ref Frames
  11. Format settings, CABAC : Yes
  12. Format settings, Reference frames : 3 frames
  13. Codec ID : V_MPEG4/ISO/AVC
  14. Duration : 50 min 17 s
  15. Bit rate mode : Variable
  16. Bit rate : 7 500 kb/s
  17. Maximum bit rate : 11.2 Mb/s
  18. Width : 1 920 pixels
  19. Height : 1 080 pixels
  20. Display aspect ratio : 16:9
  21. Frame rate mode : Constant
  22. Frame rate : 23.976 (24000/1001) FPS
  23. Color space : YUV
  24. Chroma subsampling : 4:2:0
  25. Bit depth : 8 bits
  26. Scan type : Progressive
  27. Bits/(Pixel*Frame) : 0.151
  28. Stream size : 2.57 GiB (90%)
  29. Writing library : x264 core 148 r2717 0d2410d
  30. Encoding settings : cabac=1 / ref=3 / deblock=1:0:0 / analyse=0x1:0x111 / me=umh / subme=10 / psy=1 / psy_rd=1.00:0.00 / mixed_ref=1 / me_range=24 / chroma_me=1 / trellis=2 / 8x8dct=0 / cqm=0 / deadzone=21,11 / fast_pskip=1 / chroma_qp_offset=-2 / threads=8 / lookahead_threads=1 / sliced_threads=0 / nr=0 / decimate=1 / interlaced=0 / bluray_compat=0 / stitchable=1 / constrained_intra=0 / bframes=2 / b_pyramid=0 / b_adapt=2 / b_bias=0 / direct=3 / weightb=1 / open_gop=0 / weightp=2 / keyint=250 / keyint_min=23 / scenecut=0 / intra_refresh=0 / rc_lookahead=48 / rc=2pass / mbtree=1 / bitrate=7500 / ratetol=1.0 / qcomp=0.50 / qpmin=6 / qpmax=51 / qpstep=4 / cplxblur=20.0 / qblur=0.5 / vbv_maxrate=11250 / vbv_bufsize=15000 / nal_hrd=vbr / filler=0 / ip_ratio=1.40 / aq=1:1.00
  31. Default : Yes
  32. Forced : No
  33.  
  34. Audio
  35. ID : 2
  36. Format : E-AC-3 JOC
  37. Format/Info : Enhanced AC-3 with Joint Object Coding
  38. Commercial name : Dolby Digital Plus with Dolby Atmos
  39. Codec ID : A_EAC3
  40. Duration : 50 min 17 s
  41. Bit rate mode : Constant
  42. Bit rate : 768 kb/s
  43. Channel(s) : 6 channels
  44. Channel layout : L R C LFE Ls Rs
  45. Sampling rate : 48.0 kHz
  46. Frame rate : 31.250 FPS (1536 SPF)
  47. Compression mode : Lossy
  48. Stream size : 276 MiB (9%)
  49. Title : English
  50. Language : English
  51. Service kind : Complete Main
  52. Default : Yes
  53. Forced : No
  54. Complexity index : 16
  55. Number of dynamic objects : 15
  56. Bed channel count : 1 channel
  57. Bed channel configuration : LFE
  58.  
  59. Text #1
  60. ID : 3
  61. Format : UTF-8
  62. Codec ID : S_TEXT/UTF8
  63. Codec ID/Info : UTF-8 Plain Text
  64. Duration : 46 min 5 s
  65. Bit rate : 69 b/s
  66. Count of elements : 694
  67. Stream size : 23.3 KiB (0%)
  68. Language : English
  69. Default : No
  70. Forced : No
  71.  
  72. Text #2
  73. ID : 4
  74. Format : UTF-8
  75. Codec ID : S_TEXT/UTF8
  76. Codec ID/Info : UTF-8 Plain Text
  77. Duration : 47 min 0 s
  78. Bit rate : 72 b/s
  79. Count of elements : 749
  80. Stream size : 25.0 KiB (0%)
  81. Title : SDH
  82. Language : English
  83. Default : No
  84. Forced : No
  85.  
  86. Text #3
  87. ID : 5
  88. Format : UTF-8
  89. Codec ID : S_TEXT/UTF8
  90. Codec ID/Info : UTF-8 Plain Text
  91. Duration : 48 min 55 s
  92. Bit rate : 109 b/s
  93. Count of elements : 754
  94. Stream size : 39.3 KiB (0%)
  95. Language : Arabic
  96. Default : No
  97. Forced : No
  98.  
  99. Text #4
  100. ID : 6
  101. Format : UTF-8
  102. Codec ID : S_TEXT/UTF8
  103. Codec ID/Info : UTF-8 Plain Text
  104. Duration : 48 min 55 s
  105. Bit rate : 55 b/s
  106. Count of elements : 739
  107. Stream size : 20.0 KiB (0%)
  108. Language : Czech
  109. Default : No
  110. Forced : No
  111.  
  112. Text #5
  113. ID : 7
  114. Format : UTF-8
  115. Codec ID : S_TEXT/UTF8
  116. Codec ID/Info : UTF-8 Plain Text
  117. Duration : 48 min 55 s
  118. Bit rate : 60 b/s
  119. Count of elements : 665
  120. Stream size : 21.8 KiB (0%)
  121. Language : Danish
  122. Default : No
  123. Forced : No
  124.  
  125. Text #6
  126. ID : 8
  127. Format : UTF-8
  128. Codec ID : S_TEXT/UTF8
  129. Codec ID/Info : UTF-8 Plain Text
  130. Duration : 48 min 53 s
  131. Bit rate : 59 b/s
  132. Count of elements : 672
  133. Stream size : 21.4 KiB (0%)
  134. Language : German
  135. Default : No
  136. Forced : No
  137.  
  138. Text #7
  139. ID : 9
  140. Format : UTF-8
  141. Codec ID : S_TEXT/UTF8
  142. Codec ID/Info : UTF-8 Plain Text
  143. Duration : 48 min 55 s
  144. Bit rate : 100 b/s
  145. Count of elements : 754
  146. Stream size : 36.0 KiB (0%)
  147. Language : Greek
  148. Default : No
  149. Forced : No
  150.  
  151. Text #8
  152. ID : 10
  153. Format : UTF-8
  154. Codec ID : S_TEXT/UTF8
  155. Codec ID/Info : UTF-8 Plain Text
  156. Duration : 48 min 53 s
  157. Bit rate : 60 b/s
  158. Count of elements : 740
  159. Stream size : 21.7 KiB (0%)
  160. Language : Spanish
  161. Default : No
  162. Forced : No
  163.  
  164. Text #9
  165. ID : 11
  166. Format : UTF-8
  167. Codec ID : S_TEXT/UTF8
  168. Codec ID/Info : UTF-8 Plain Text
  169. Duration : 48 min 55 s
  170. Bit rate : 59 b/s
  171. Count of elements : 724
  172. Stream size : 21.2 KiB (0%)
  173. Title : European
  174. Language : Spanish
  175. Default : No
  176. Forced : No
  177.  
  178. Text #10
  179. ID : 12
  180. Format : UTF-8
  181. Codec ID : S_TEXT/UTF8
  182. Codec ID/Info : UTF-8 Plain Text
  183. Duration : 49 min 0 s
  184. Bit rate : 56 b/s
  185. Count of elements : 642
  186. Stream size : 20.4 KiB (0%)
  187. Language : Finnish
  188. Default : No
  189. Forced : No
  190.  
  191. Text #11
  192. ID : 13
  193. Format : UTF-8
  194. Codec ID : S_TEXT/UTF8
  195. Codec ID/Info : UTF-8 Plain Text
  196. Duration : 48 min 55 s
  197. Bit rate : 63 b/s
  198. Count of elements : 632
  199. Stream size : 22.8 KiB (0%)
  200. Language : French
  201. Default : No
  202. Forced : No
  203.  
  204. Text #12
  205. ID : 14
  206. Format : UTF-8
  207. Codec ID : S_TEXT/UTF8
  208. Codec ID/Info : UTF-8 Plain Text
  209. Duration : 48 min 55 s
  210. Bit rate : 100 b/s
  211. Count of elements : 766
  212. Stream size : 35.9 KiB (0%)
  213. Language : Hebrew
  214. Default : No
  215. Forced : No
  216.  
  217. Text #13
  218. ID : 15
  219. Format : UTF-8
  220. Codec ID : S_TEXT/UTF8
  221. Codec ID/Info : UTF-8 Plain Text
  222. Duration : 48 min 55 s
  223. Bit rate : 63 b/s
  224. Count of elements : 734
  225. Stream size : 22.9 KiB (0%)
  226. Language : Hungarian
  227. Default : No
  228. Forced : No
  229.  
  230. Text #14
  231. ID : 16
  232. Format : UTF-8
  233. Codec ID : S_TEXT/UTF8
  234. Codec ID/Info : UTF-8 Plain Text
  235. Duration : 48 min 57 s
  236. Bit rate : 63 b/s
  237. Count of elements : 675
  238. Stream size : 22.7 KiB (0%)
  239. Language : Indonesian
  240. Default : No
  241. Forced : No
  242.  
  243. Text #15
  244. ID : 17
  245. Format : UTF-8
  246. Codec ID : S_TEXT/UTF8
  247. Codec ID/Info : UTF-8 Plain Text
  248. Duration : 49 min 0 s
  249. Bit rate : 57 b/s
  250. Count of elements : 666
  251. Stream size : 20.6 KiB (0%)
  252. Language : Italian
  253. Default : No
  254. Forced : No
  255.  
  256. Text #16
  257. ID : 18
  258. Format : UTF-8
  259. Codec ID : S_TEXT/UTF8
  260. Codec ID/Info : UTF-8 Plain Text
  261. Duration : 48 min 55 s
  262. Bit rate : 59 b/s
  263. Count of elements : 670
  264. Stream size : 21.5 KiB (0%)
  265. Language : Japanese
  266. Default : No
  267. Forced : No
  268.  
  269. Text #17
  270. ID : 19
  271. Format : UTF-8
  272. Codec ID : S_TEXT/UTF8
  273. Codec ID/Info : UTF-8 Plain Text
  274. Duration : 48 min 52 s
  275. Bit rate : 76 b/s
  276. Count of elements : 743
  277. Stream size : 27.3 KiB (0%)
  278. Language : Korean
  279. Default : No
  280. Forced : No
  281.  
  282. Text #18
  283. ID : 20
  284. Format : UTF-8
  285. Codec ID : S_TEXT/UTF8
  286. Codec ID/Info : UTF-8 Plain Text
  287. Duration : 48 min 55 s
  288. Bit rate : 61 b/s
  289. Count of elements : 595
  290. Stream size : 22.2 KiB (0%)
  291. Language : Norwegian Bokmal
  292. Default : No
  293. Forced : No
  294.  
  295. Text #19
  296. ID : 21
  297. Format : UTF-8
  298. Codec ID : S_TEXT/UTF8
  299. Codec ID/Info : UTF-8 Plain Text
  300. Duration : 48 min 55 s
  301. Bit rate : 55 b/s
  302. Count of elements : 628
  303. Stream size : 19.8 KiB (0%)
  304. Language : Dutch
  305. Default : No
  306. Forced : No
  307.  
  308. Text #20
  309. ID : 22
  310. Format : UTF-8
  311. Codec ID : S_TEXT/UTF8
  312. Codec ID/Info : UTF-8 Plain Text
  313. Duration : 48 min 55 s
  314. Bit rate : 57 b/s
  315. Count of elements : 708
  316. Stream size : 20.5 KiB (0%)
  317. Language : Polish
  318. Default : No
  319. Forced : No
  320.  
  321. Text #21
  322. ID : 23
  323. Format : UTF-8
  324. Codec ID : S_TEXT/UTF8
  325. Codec ID/Info : UTF-8 Plain Text
  326. Duration : 48 min 55 s
  327. Bit rate : 65 b/s
  328. Count of elements : 730
  329. Stream size : 23.5 KiB (0%)
  330. Language : Portuguese
  331. Default : No
  332. Forced : No
  333.  
  334. Text #22
  335. ID : 24
  336. Format : UTF-8
  337. Codec ID : S_TEXT/UTF8
  338. Codec ID/Info : UTF-8 Plain Text
  339. Duration : 46 min 54 s
  340. Bit rate : 63 b/s
  341. Count of elements : 694
  342. Stream size : 21.7 KiB (0%)
  343. Title : Brazilian
  344. Language : Portuguese
  345. Default : No
  346. Forced : No
  347.  
  348. Text #23
  349. ID : 25
  350. Format : UTF-8
  351. Codec ID : S_TEXT/UTF8
  352. Codec ID/Info : UTF-8 Plain Text
  353. Duration : 48 min 55 s
  354. Bit rate : 72 b/s
  355. Count of elements : 718
  356. Stream size : 25.8 KiB (0%)
  357. Language : Romanian
  358. Default : No
  359. Forced : No
  360.  
  361. Text #24
  362. ID : 26
  363. Format : UTF-8
  364. Codec ID : S_TEXT/UTF8
  365. Codec ID/Info : UTF-8 Plain Text
  366. Duration : 48 min 55 s
  367. Bit rate : 105 b/s
  368. Count of elements : 718
  369. Stream size : 37.7 KiB (0%)
  370. Language : Russian
  371. Default : No
  372. Forced : No
  373.  
  374. Text #25
  375. ID : 27
  376. Format : UTF-8
  377. Codec ID : S_TEXT/UTF8
  378. Codec ID/Info : UTF-8 Plain Text
  379. Duration : 48 min 55 s
  380. Bit rate : 58 b/s
  381. Count of elements : 564
  382. Stream size : 20.9 KiB (0%)
  383. Language : Swedish
  384. Default : No
  385. Forced : No
  386.  
  387. Text #26
  388. ID : 28
  389. Format : UTF-8
  390. Codec ID : S_TEXT/UTF8
  391. Codec ID/Info : UTF-8 Plain Text
  392. Duration : 48 min 55 s
  393. Bit rate : 172 b/s
  394. Count of elements : 754
  395. Stream size : 61.8 KiB (0%)
  396. Language : Thai
  397. Default : No
  398. Forced : No
  399.  
  400. Text #27
  401. ID : 29
  402. Format : UTF-8
  403. Codec ID : S_TEXT/UTF8
  404. Codec ID/Info : UTF-8 Plain Text
  405. Duration : 48 min 55 s
  406. Bit rate : 63 b/s
  407. Count of elements : 714
  408. Stream size : 22.6 KiB (0%)
  409. Language : Turkish
  410. Default : No
  411. Forced : No
  412.  
  413. Text #28
  414. ID : 30
  415. Format : UTF-8
  416. Codec ID : S_TEXT/UTF8
  417. Codec ID/Info : UTF-8 Plain Text
  418. Duration : 48 min 55 s
  419. Bit rate : 88 b/s
  420. Count of elements : 735
  421. Stream size : 31.9 KiB (0%)
  422. Language : Vietnamese
  423. Default : No
  424. Forced : No
  425.  
  426. Text #29
  427. ID : 31
  428. Format : UTF-8
  429. Codec ID : S_TEXT/UTF8
  430. Codec ID/Info : UTF-8 Plain Text
  431. Duration : 48 min 55 s
  432. Bit rate : 68 b/s
  433. Count of elements : 754
  434. Stream size : 24.4 KiB (0%)
  435. Title : Simplified
  436. Language : Chinese
  437. Default : No
  438. Forced : No
  439.  
  440. Text #30
  441. ID : 32
  442. Format : UTF-8
  443. Codec ID : S_TEXT/UTF8
  444. Codec ID/Info : UTF-8 Plain Text
  445. Duration : 48 min 55 s
  446. Bit rate : 55 b/s
  447. Count of elements : 769
  448. Stream size : 19.8 KiB (0%)
  449. Title : Traditional
  450. Language : Chinese
  451. Default : No
  452. Forced : No
  453.  
  454. Menu
  455. 00:00:06.632 : en:Intro start
  456. 00:00:34.034 : en:Intro end
RAW Paste Data
We use cookies for various purposes including analytics. By continuing to use Pastebin, you agree to our use of cookies as described in the Cookies Policy. OK, I Understand
Top