SHARE
TWEET

Mozart Pinnock CD1 Accurip

a guest Nov 12th, 2016 50 Never
Not a member of Pastebin yet? Sign Up, it unlocks many cool features!
  1. [CUETools log; Date: 12/11/2016 05:02:57 p.m.; Version: 2.1.5]
  2. Pregap length 00:00:32.
  3. [CTDB TOCID: mNnmHHPvIkWqzi8o8YpYb9kQlsM-] found.
  4. Track | CTDB Status
  5.   1   | (40/40) Accurately ripped
  6.   2   | (40/40) Accurately ripped
  7.   3   | (40/40) Accurately ripped
  8.   4   | (40/40) Accurately ripped
  9.   5   | (40/40) Accurately ripped
  10.   6   | (39/40) Accurately ripped
  11.   7   | (39/40) Accurately ripped
  12.   8   | (40/40) Accurately ripped
  13.   9   | (40/40) Accurately ripped
  14.  10   | (40/40) Accurately ripped
  15.  11   | (40/40) Accurately ripped
  16.  12   | (40/40) Accurately ripped
  17.  13   | (39/40) Accurately ripped
  18.  14   | (39/40) Accurately ripped
  19.  15   | (40/40) Accurately ripped
  20.  16   | (40/40) Accurately ripped
  21.  17   | (39/40) Accurately ripped
  22.  18   | (40/40) Accurately ripped
  23.  19   | (40/40) Accurately ripped
  24. [AccurateRip ID: 0031e417-02ab9864-1e109c13] found.
  25. Track   [  CRC   |   V2   ] Status
  26.  01     [1f0d4ba8|ec091362] (19+11/73) Accurately ripped
  27.  02     [ca6ab845|0b7b4d38] (19+11/74) Accurately ripped
  28.  03     [2c40da0b|f352f8fb] (19+11/73) Accurately ripped
  29.  04     [f7fa5b96|c51aea3d] (19+11/73) Accurately ripped
  30.  05     [1fcdc79a|b320c87a] (19+11/73) Accurately ripped
  31.  06     [e4d4674d|d36ec85c] (19+11/72) Accurately ripped
  32.  07     [96c7e977|d8bfd9da] (19+11/73) Accurately ripped
  33.  08     [4c62cdc6|99747c38] (19+11/73) Accurately ripped
  34.  09     [6bfa9d77|dcda27f7] (18+11/71) Accurately ripped
  35.  10     [958e53aa|bde3fb92] (19+11/73) Accurately ripped
  36.  11     [988397fa|c71f5230] (19+11/73) Accurately ripped
  37.  12     [419e077c|f2db8994] (19+11/73) Accurately ripped
  38.  13     [9fab6125|a83724d1] (19+11/73) Accurately ripped
  39.  14     [37147824|66cdf016] (19+11/73) Accurately ripped
  40.  15     [b9ecf18b|2fd90c07] (19+11/73) Accurately ripped
  41.  16     [232f1433|1a14f5c7] (20+11/73) Accurately ripped
  42.  17     [dc70e8fc|f0f3093b] (19+11/72) Accurately ripped
  43.  18     [b0e21516|08a7eeb0] (19+11/72) Accurately ripped
  44.  19     [f92dbc3f|e4f27dce] (17+10/69) Accurately ripped
  45. Offsetted by 664:
  46.  01     [162a5094] (11/73) Accurately ripped
  47.  02     [0055a90e] (11/74) Accurately ripped
  48.  03     [4ad41ade] (11/73) Accurately ripped
  49.  04     [424fe5a2] (11/73) Accurately ripped
  50.  05     [de31c438] (11/73) Accurately ripped
  51.  06     [5721f194] (11/72) Accurately ripped
  52.  07     [fe466600] (11/73) Accurately ripped
  53.  08     [8cb40db5] (11/73) Accurately ripped
  54.  09     [914dbef3] (10/71) Accurately ripped
  55.  10     [509f726e] (11/73) Accurately ripped
  56.  11     [90e27f3f] (11/73) Accurately ripped
  57.  12     [c4e14400] (11/73) Accurately ripped
  58.  13     [46dd8e77] (11/73) Accurately ripped
  59.  14     [c1753107] (11/73) Accurately ripped
  60.  15     [944defcb] (11/73) Accurately ripped
  61.  16     [a10eb295] (10/73) Accurately ripped
  62.  17     [cd5469c3] (10/72) Accurately ripped
  63.  18     [46780ac8] (10/72) Accurately ripped
  64.  19     [67e6ca09] (10/69) Accurately ripped
  65.  
  66. Track Peak [ CRC32  ] [W/O NULL] [  LOG   ]
  67.  --   88,5 [F33509F7] [79F79353]          
  68.  01   83,0 [4DEB0497] [FAE947FD]   CRC32  
  69.  02   61,8 [9D9717F6] [D5AD2AA1]   CRC32  
  70.  03   77,1 [FF9EE7E2] [D08FC306]   CRC32  
  71.  04   88,5 [8DBE08B0] [B0018D60]   CRC32  
  72.  05   34,9 [CB020BD0] [60451241]   CRC32  
  73.  06   86,0 [3CCC8B91] [70E787AE]   CRC32  
  74.  07   77,3 [6A9A582E] [09AF6960]   CRC32  
  75.  08   39,5 [56D2AA83] [2D83B0B7]   CRC32  
  76.  09   81,5 [2D7D5BD0] [65AE70B5]   CRC32  
  77.  10   81,7 [50284599] [051CD10B]   CRC32  
  78.  11   48,6 [127F8C96] [F6540D1E]   CRC32  
  79.  12   61,4 [A1BF9E4D] [CFF3D9EE]   CRC32  
  80.  13   79,7 [4D4518F1] [396CBD28]   CRC32  
  81.  14   52,2 [22E6725B] [FA92FFDE]   CRC32  
  82.  15   81,1 [82460BB0] [5F01FBCD]   CRC32  
  83.  16   76,8 [A4881EB5] [0D7BF37A]   CRC32  
  84.  17   32,0 [C590C10C] [2D48B33F]   CRC32  
  85.  18   67,8 [0885BCC8] [D4963A40]   CRC32  
  86.  19   85,2 [82D9BEF0] [56097394]   CRC32
RAW Paste Data
We use cookies for various purposes including analytics. By continuing to use Pastebin, you agree to our use of cookies as described in the Cookies Policy. OK, I Understand
Not a member of Pastebin yet?
Sign Up, it unlocks many cool features!
 
Top