Guest User

The.Voices.2014.1080p.BluRay.REMUX.AVC.DTS-HD.MA.5.1-EPSiLON

a guest
May 28th, 2019
43
Never
Not a member of Pastebin yet? Sign Up, it unlocks many cool features!
  1. General
  2. Complete name                            : The.Voices.2014.1080p.BluRay.REMUX.AVC.DTS-HD.MA.5.1-EPSiLON.mkv
  3. Format                                   : Matroska
  4. Format version                           : Version 4
  5. File size                                : 23.1 GiB
  6. Duration                                 : 1 h 43 min
  7. Overall bit rate mode                    : Variable
  8. Overall bit rate                         : 31.9 Mb/s
  9. Encoded date                             : UTC 2018-01-05 05:56:51
  10. Writing application                      : mkvmerge v19.0.0 ('Brave Captain') 64-bit
  11. Writing library                          : libebml v1.3.5 + libmatroska v1.4.8
  12.  
  13. Video
  14. ID                                       : 1
  15. Format                                   : AVC
  16. Format/Info                              : Advanced Video Codec
  17. Format profile                           : High@L4.1
  18. Format settings                          : CABAC / 4 Ref Frames
  19. Format settings, CABAC                   : Yes
  20. Format settings, Reference frames        : 4 frames
  21. Codec ID                                 : V_MPEG4/ISO/AVC
  22. Duration                                 : 1 h 43 min
  23. Bit rate mode                            : Variable
  24. Bit rate                                 : 28.0 Mb/s
  25. Maximum bit rate                         : 35.0 Mb/s
  26. Width                                    : 1 920 pixels
  27. Height                                   : 1 080 pixels
  28. Display aspect ratio                     : 16:9
  29. Frame rate mode                          : Constant
  30. Frame rate                               : 23.976 (24000/1001) FPS
  31. Standard                                 : NTSC
  32. Color space                              : YUV
  33. Chroma subsampling                       : 4:2:0
  34. Bit depth                                : 8 bits
  35. Scan type                                : Progressive
  36. Bits/(Pixel*Frame)                       : 0.563
  37. Stream size                              : 20.3 GiB (88%)
  38. Title                                    : MPEG-4 AVC Video/ 28005 kbps / 1080p / 23.976 fps / 16:9 / High Profile 4.1
  39. Language                                 : English
  40. Default                                  : Yes
  41. Forced                                   : No
  42. Color range                              : Limited
  43. Color primaries                          : BT.709
  44. Transfer characteristics                 : BT.709
  45. Matrix coefficients                      : BT.709
  46.  
  47. Audio
  48. ID                                       : 2
  49. Format                                   : DTS XLL
  50. Format/Info                              : Digital Theater Systems
  51. Commercial name                          : DTS-HD Master Audio
  52. Codec ID                                 : A_DTS
  53. Duration                                 : 1 h 43 min
  54. Bit rate mode                            : Variable
  55. Bit rate                                 : 3 829 kb/s
  56. Channel(s)                               : 6 channels
  57. Channel layout                           : C L R Ls Rs LFE
  58. Sampling rate                            : 48.0 kHz
  59. Frame rate                               : 93.750 FPS (512 SPF)
  60. Bit depth                                : 24 bits
  61. Compression mode                         : Lossless
  62. Stream size                              : 2.77 GiB (12%)
  63. Title                                    : DTS-HD Master Audio / English / 5.1 / 48 kHz / 3829 kbps / 24-bit
  64. Language                                 : English
  65. Default                                  : Yes
  66. Forced                                   : No
  67.  
  68. Text #1
  69. ID                                       : 3
  70. Format                                   : PGS
  71. Codec ID                                 : S_HDMV/PGS
  72. Codec ID/Info                            : Picture based subtitle format used on BDs/HD-DVDs
  73. Duration                                 : 1 h 33 min
  74. Bit rate                                 : 36.0 kb/s
  75. Count of elements                        : 2374
  76. Stream size                              : 24.1 MiB (0%)
  77. Language                                 : English
  78. Default                                  : No
  79. Forced                                   : No
  80.  
  81. Text #2
  82. ID                                       : 4
  83. Format                                   : PGS
  84. Codec ID                                 : S_HDMV/PGS
  85. Codec ID/Info                            : Picture based subtitle format used on BDs/HD-DVDs
  86. Duration                                 : 1 h 38 min
  87. Bit rate                                 : 41.3 kb/s
  88. Count of elements                        : 3278
  89. Stream size                              : 29.0 MiB (0%)
  90. Title                                    : SDH
  91. Language                                 : English
  92. Default                                  : No
  93. Forced                                   : No
  94.  
  95. Text #3
  96. ID                                       : 5
  97. Format                                   : PGS
  98. Codec ID                                 : S_HDMV/PGS
  99. Codec ID/Info                            : Picture based subtitle format used on BDs/HD-DVDs
  100. Duration                                 : 1 h 34 min
  101. Bit rate                                 : 34.8 kb/s
  102. Count of elements                        : 2404
  103. Stream size                              : 23.6 MiB (0%)
  104. Title                                    : Latin American
  105. Language                                 : Spanish
  106. Default                                  : No
  107. Forced                                   : No
  108.  
  109. Menu
  110. 00:00:00.000                             : en:Chapter 1
  111. 00:07:30.408                             : en:Chapter 2
  112. 00:15:14.872                             : en:Chapter 3
  113. 00:22:56.875                             : en:Chapter 4
  114. 00:30:41.465                             : en:Chapter 5
  115. 00:39:29.784                             : en:Chapter 6
  116. 00:48:43.712                             : en:Chapter 7
  117. 01:00:10.524                             : en:Chapter 8
  118. 01:08:43.244                             : en:Chapter 9
  119. 01:16:26.040                             : en:Chapter 10
  120. 01:26:34.314                             : en:Chapter 11
  121. 01:36:13.393                             : en:Chapter 12
RAW Paste Data