Ledger Nano X - The secure hardware wallet
SHARE
TWEET

Untitled

a guest Mar 28th, 2020 78 Never
Not a member of Pastebin yet? Sign Up, it unlocks many cool features!
  1. General
  2. Complete name                            : ishu-12-rendu.mp4
  3. Format                                   : MPEG-4
  4. Format profile                           : Base Media / Version 2
  5. Codec ID                                 : mp42 (mp42/mp41)
  6. File size                                : 442 MiB
  7. Duration                                 : 21mn 30s
  8. Overall bit rate mode                    : Variable
  9. Overall bit rate                         : 2 874 Kbps
  10. Encoded date                             : UTC 2020-03-29 00:50:16
  11. Tagged date                              : UTC 2020-03-29 00:50:20
  12. TIM                                      : 00:01:58:22
  13. TSC                                      : 24000
  14. TSZ                                      : 1001
  15.  
  16. Video
  17. ID                                       : 1
  18. Format                                   : AVC
  19. Format/Info                              : Advanced Video Codec
  20. Format profile                           : Main@L4.1
  21. Format settings                          : CABAC / 4 Ref Frames
  22. Format settings, CABAC                   : Yes
  23. Format settings, ReFrames                : 4 frames
  24. Codec ID                                 : avc1
  25. Codec ID/Info                            : Advanced Video Coding
  26. Duration                                 : 21mn 30s
  27. Bit rate                                 : 2 680 Kbps
  28. Width                                    : 1 920 pixels
  29. Height                                   : 1 080 pixels
  30. Display aspect ratio                     : 16:9
  31. Frame rate mode                          : Constant
  32. Frame rate                               : 23.976 (24000/1001) fps
  33. Color space                              : YUV
  34. Chroma subsampling                       : 4:2:0
  35. Bit depth                                : 8 bits
  36. Scan type                                : Progressive
  37. Bits/(Pixel*Frame)                       : 0.054
  38. Stream size                              : 412 MiB (93%)
  39. Language                                 : English
  40. Encoded date                             : UTC 2020-03-29 00:50:16
  41. Tagged date                              : UTC 2020-03-29 00:50:16
  42. Color range                              : Limited
  43. Color primaries                          : BT.709
  44. Transfer characteristics                 : BT.709
  45. Matrix coefficients                      : BT.709
  46. Codec configuration box                  : avcC
  47.  
  48. Audio
  49. ID                                       : 2
  50. Format                                   : AAC LC
  51. Format/Info                              : Advanced Audio Codec Low Complexity
  52. Codec ID                                 : mp4a-40-2
  53. Duration                                 : 21mn 30s
  54. Source duration                          : 21mn 31s
  55. Bit rate mode                            : Variable
  56. Bit rate                                 : 192 Kbps
  57. Maximum bit rate                         : 310 Kbps
  58. Channel(s)                               : 2 channels
  59. Channel layout                           : L R
  60. Sampling rate                            : 48.0 KHz
  61. Frame rate                               : 46.875 fps (1024 SPF)
  62. Compression mode                         : Lossy
  63. Stream size                              : 29.1 MiB (7%)
  64. Source stream size                       : 29.1 MiB (7%)
  65. Language                                 : English
  66. Encoded date                             : UTC 2020-03-29 00:50:16
  67. Tagged date                              : UTC 2020-03-29 00:50:16
RAW Paste Data
We use cookies for various purposes including analytics. By continuing to use Pastebin, you agree to our use of cookies as described in the Cookies Policy. OK, I Understand
Top