SHARE
TWEET

Ferris.Buellers.Day.Off.1986.1080p.BluRay.REMUX.AVC.TrueHD.5.1-PmP

a guest Jun 14th, 2019 28 Never
Not a member of Pastebin yet? Sign Up, it unlocks many cool features!
  1. General
  2. Unique ID                                : 235476020060595364303593794878208277801 (0xB12708257C484E6FA590246FEEE8FD29)
  3. Complete name                            : Ferris.Buellers.Day.Off.1986.1080p.BluRay.REMUX.AVC.TrueHD.5.1-PmP.mkv
  4. Format                                   : Matroska
  5. Format version                           : Version 4
  6. File size                                : 25.9 GiB
  7. Duration                                 : 1 h 43 min
  8. Overall bit rate mode                    : Variable
  9. Overall bit rate                         : 36.0 Mb/s
  10. Movie name                               : FERRIS BUELLER'S DAY OFF (1986)
  11. Encoded date                             : UTC 2017-07-22 04:09:13
  12. Writing application                      : mkvmerge v13.0.0 ('The Juggler') 64bit
  13. Writing library                          : libebml v1.3.4 + libmatroska v1.4.5
  14.  
  15. Video
  16. ID                                       : 1
  17. Format                                   : AVC
  18. Format/Info                              : Advanced Video Codec
  19. Format profile                           : High@L4.1
  20. Format settings                          : CABAC / 2 Ref Frames
  21. Format settings, CABAC                   : Yes
  22. Format settings, Reference frames        : 2 frames
  23. Codec ID                                 : V_MPEG4/ISO/AVC
  24. Duration                                 : 1 h 43 min
  25. Bit rate mode                            : Variable
  26. Bit rate                                 : 31.9 Mb/s
  27. Width                                    : 1 920 pixels
  28. Height                                   : 1 080 pixels
  29. Display aspect ratio                     : 16:9
  30. Frame rate mode                          : Constant
  31. Frame rate                               : 23.976 (24000/1001) FPS
  32. Color space                              : YUV
  33. Chroma subsampling                       : 4:2:0
  34. Bit depth                                : 8 bits
  35. Scan type                                : Progressive
  36. Bits/(Pixel*Frame)                       : 0.643
  37. Stream size                              : 23.0 GiB (89%)
  38. Title                                    : MPEG-4 AVC Video / 31946 kbps / 1080p / 23.976 fps / 16:9 / High Profile 4.1
  39. Language                                 : English
  40. Default                                  : Yes
  41. Forced                                   : No
  42.  
  43. Audio #1
  44. ID                                       : 2
  45. Format                                   : MLP FBA
  46. Format/Info                              : Meridian Lossless Packing FBA
  47. Commercial name                          : Dolby TrueHD
  48. Codec ID                                 : A_TRUEHD
  49. Duration                                 : 1 h 43 min
  50. Bit rate mode                            : Variable
  51. Bit rate                                 : 3 158 kb/s
  52. Maximum bit rate                         : 4 752 kb/s
  53. Channel(s)                               : 6 channels
  54. Channel layout                           : L R C LFE Ls Rs
  55. Sampling rate                            : 48.0 kHz
  56. Frame rate                               : 1 200.000 FPS (40 SPF)
  57. Compression mode                         : Lossless
  58. Stream size                              : 2.27 GiB (9%)
  59. Title                                    : Dolby TrueHD Audio / 5.1 / 48 kHz / 3158 kbps / 24-bit
  60. Language                                 : English
  61. Default                                  : Yes
  62. Forced                                   : No
  63.  
  64. Audio #2
  65. ID                                       : 3
  66. Format                                   : AC-3
  67. Format/Info                              : Audio Coding 3
  68. Commercial name                          : Dolby Digital
  69. Codec ID                                 : A_AC3
  70. Duration                                 : 1 h 43 min
  71. Bit rate mode                            : Constant
  72. Bit rate                                 : 640 kb/s
  73. Channel(s)                               : 6 channels
  74. Channel layout                           : L R C LFE Ls Rs
  75. Sampling rate                            : 48.0 kHz
  76. Frame rate                               : 31.250 FPS (1536 SPF)
  77. Bit depth                                : 16 bits
  78. Compression mode                         : Lossy
  79. Stream size                              : 472 MiB (2%)
  80. Title                                    : Compatibility Track / Dolby Digital Audio / 5.1 / 48 kHz / 640 kbps
  81. Language                                 : English
  82. Service kind                             : Complete Main
  83. Default                                  : No
  84. Forced                                   : No
  85.  
  86. Text #1
  87. ID                                       : 4
  88. Format                                   : PGS
  89. Codec ID                                 : S_HDMV/PGS
  90. Codec ID/Info                            : Picture based subtitle format used on BDs/HD-DVDs
  91. Duration                                 : 1 h 42 min
  92. Bit rate                                 : 34.8 kb/s
  93. Count of elements                        : 2410
  94. Stream size                              : 25.5 MiB (0%)
  95. Language                                 : English
  96. Default                                  : No
  97. Forced                                   : No
  98.  
  99. Text #2
  100. ID                                       : 5
  101. Format                                   : PGS
  102. Codec ID                                 : S_HDMV/PGS
  103. Codec ID/Info                            : Picture based subtitle format used on BDs/HD-DVDs
  104. Duration                                 : 1 h 42 min
  105. Bit rate                                 : 39.2 kb/s
  106. Count of elements                        : 2810
  107. Stream size                              : 28.8 MiB (0%)
  108. Title                                    : SDH
  109. Language                                 : English
  110. Default                                  : No
  111. Forced                                   : No
  112.  
  113. Text #3
  114. ID                                       : 6
  115. Format                                   : PGS
  116. Codec ID                                 : S_HDMV/PGS
  117. Codec ID/Info                            : Picture based subtitle format used on BDs/HD-DVDs
  118. Duration                                 : 1 h 42 min
  119. Bit rate                                 : 35.2 kb/s
  120. Count of elements                        : 2444
  121. Stream size                              : 25.8 MiB (0%)
  122. Language                                 : French
  123. Default                                  : No
  124. Forced                                   : No
  125.  
  126. Text #4
  127. ID                                       : 7
  128. Format                                   : PGS
  129. Codec ID                                 : S_HDMV/PGS
  130. Codec ID/Info                            : Picture based subtitle format used on BDs/HD-DVDs
  131. Duration                                 : 1 h 42 min
  132. Bit rate                                 : 33.8 kb/s
  133. Count of elements                        : 2446
  134. Stream size                              : 24.7 MiB (0%)
  135. Language                                 : Portuguese
  136. Default                                  : No
  137. Forced                                   : No
  138.  
  139. Text #5
  140. ID                                       : 8
  141. Format                                   : PGS
  142. Codec ID                                 : S_HDMV/PGS
  143. Codec ID/Info                            : Picture based subtitle format used on BDs/HD-DVDs
  144. Duration                                 : 1 h 42 min
  145. Bit rate                                 : 34.3 kb/s
  146. Count of elements                        : 2444
  147. Stream size                              : 25.2 MiB (0%)
  148. Language                                 : Spanish
  149. Default                                  : No
  150. Forced                                   : No
  151.  
  152. Menu
  153. 00:00:00.000                             : en: Faking Out the Parents
  154. 00:08:15.328                             : en: Faking Out Rooney
  155. 00:17:42.770                             : en: Emancipation of Sloane
  156. 00:25:54.928                             : en: The Car -- 1961 Ferrari 250 Gt California
  157. 00:31:29.846                             : en: Downtown
  158. 00:40:29.218                             : en: Lunch with Ferris
  159. 00:47:33.976                             : en: Rooney on the Trail
  160. 00:50:55.678                             : en: Bueller Residence vs. Rooney
  161. 00:58:01.728                             : en: Parade -- Ferris Style
  162. 01:05:37.392                             : en: Jeanie Encounters Rooney
  163. 01:11:20.026                             : en: Cameron Goes Berserk
  164. 01:19:45.114                             : en: Kill the Car
  165. 01:29:25.443                             : en: The Race Home
  166. 01:36:28.199                             : en: 150% Better
RAW Paste Data
We use cookies for various purposes including analytics. By continuing to use Pastebin, you agree to our use of cookies as described in the Cookies Policy. OK, I Understand
Not a member of Pastebin yet?
Sign Up, it unlocks many cool features!
 
Top