Secasa

Untitled

May 12th, 2015
28
Never
Not a member of Pastebin yet? Sign Up, it unlocks many cool features!
  1. Format : Matroska
  2. Format version : Version 2
  3. File size : 11.1 GiB
  4. Duration : 1h 49mn
  5. Overall bit rate : 14.4 Mbps
  6. Encoded date : UTC 2015-05-11 18:39:50
  7. Writing application : mkvmerge v5.3.0 ('I could have danced') built on Feb 9 2012 10:38:07
  8. Writing library : libebml v1.2.3 + libmatroska v1.3.0
  9.  
  10. Video
  11. ID : 1
  12. Format : AVC
  13. Format/Info : Advanced Video Codec
  14. Format profile : High@L4.1
  15. Format settings, CABAC : Yes
  16. Format settings, ReFrames : 5 frames
  17. Codec ID : V_MPEG4/ISO/AVC
  18. Duration : 1h 49mn
  19. Bit rate : 12.0 Mbps
  20. Width : 1 920 pixels
  21. Height : 802 pixels
  22. Display aspect ratio : 2.40:1
  23. Frame rate mode : Constant
  24. Frame rate : 23.976 fps
  25. Color space : YUV
  26. Chroma subsampling : 4:2:0
  27. Bit depth : 8 bits
  28. Scan type : Progressive
  29. Bits/(Pixel*Frame) : 0.324
  30. Stream size : 9.18 GiB (83%)
  31. Writing library : x264 core 144 r0+2574 9abcd72 t_mod_Custom [8-bit@all X86_64]
  32. Encoding settings : cabac=1 / ref=5 / deblock=1:-3:-3 / analyse=0x3:0x133 / me=umh / subme=10 / psy=1 / fade_compensate=0.00 / psy_rd=1.00:0.00 / mixed_ref=1 / me_range=24 / chroma_me=1 / trellis=2 / 8x8dct=1 / cqm=0 / deadzone=21,11 / fast_pskip=1 / chroma_qp_offset=-2 / threads=12 / lookahead_threads=2 / sliced_threads=0 / nr=0 / decimate=1 / interlaced=0 / bluray_compat=0 / constrained_intra=0 / fgo=0 / bframes=9 / b_pyramid=2 / b_adapt=2 / b_bias=0 / direct=3 / weightb=1 / open_gop=0 / weightp=2 / keyint=250 / keyint_min=23 / scenecut=40 / intra_refresh=0 / rc=crf / mbtree=0 / crf=18.4000 / qcomp=0.65 / qpmin=0:0:0 / qpmax=69:69:69 / qpstep=4 / ip_ratio=1.30 / pb_ratio=1.20 / aq=4:0.85 / aq-sensitivity=10.00 / aq-factor=1.00:1.00:1.00 / aq2=0 / aq3=0
  33. Language : English
  34. Default : Yes
  35. Forced : No
  36. Matrix coefficients : BT.709
  37. Color range : Limited
  38.  
  39. Audio #1
  40. ID : 2
  41. Format : AC-3
  42. Format/Info : Audio Coding 3
  43. Mode extension : CM (complete main)
  44. Format settings, Endianness : Big
  45. Codec ID : A_AC3
  46. Duration : 1h 49mn
  47. Bit rate mode : Constant
  48. Bit rate : 640 Kbps
  49. Channel(s) : 6 channels
  50. Channel positions : Front: L C R, Side: L R, LFE
  51. Sampling rate : 48.0 KHz
  52. Bit depth : 16 bits
  53. Compression mode : Lossy
  54. Delay relative to video : 4ms
  55. Stream size : 503 MiB (4%)
  56. Language : Spanish
  57. Default : Yes
  58. Forced : No
  59.  
  60. Audio #2
  61. ID : 3
  62. Format : DTS
  63. Format/Info : Digital Theater Systems
  64. Mode : 16
  65. Format settings, Endianness : Big
  66. Codec ID : A_DTS
  67. Duration : 1h 49mn
  68. Bit rate mode : Constant
  69. Bit rate : 1 510 Kbps
  70. Channel(s) : 6 channels
  71. Channel positions : Front: L C R, Side: L R, LFE
  72. Sampling rate : 48.0 KHz
  73. Bit depth : 24 bits
  74. Compression mode : Lossy
  75. Stream size : 1.16 GiB (10%)
  76. Language : English
  77. Default : No
  78. Forced : No
  79.  
  80. Text #1
  81. ID : 4
  82. Format : UTF-8
  83. Codec ID : S_TEXT/UTF8
  84. Codec ID/Info : UTF-8 Plain Text
  85. Language : Spanish
  86. Default : No
  87. Forced : No
  88.  
  89. Text #2
  90. ID : 5
  91. Format : UTF-8
  92. Codec ID : S_TEXT/UTF8
  93. Codec ID/Info : UTF-8 Plain Text
  94. Language : English
  95. Default : No
  96. Forced : No
  97.  
  98. Menu
  99. 00:00:00.000 : en:00:00:00.000
  100. 00:06:55.165 : en:00:06:55.165
  101. 00:12:52.146 : en:00:12:52.146
  102. 00:18:27.315 : en:00:18:27.315
  103. 00:27:24.351 : en:00:27:24.351
  104. 00:34:50.630 : en:00:34:50.630
  105. 00:41:12.011 : en:00:41:12.011
  106. 00:46:37.962 : en:00:46:37.962
  107. 00:54:06.910 : en:00:54:06.910
  108. 00:58:31.341 : en:00:58:31.341
  109. 01:05:12.826 : en:01:05:12.826
  110. 01:10:22.927 : en:01:10:22.927
  111. 01:18:34.418 : en:01:18:34.418
  112. 01:28:29.554 : en:01:28:29.554
  113. 01:39:40.141 : en:01:39:40.141
  114. 01:44:57.833 : en:01:44:57.833
RAW Paste Data