daily pastebin goal
62%
SHARE
TWEET

Dark.Crimes.2016.1080p.BluRay.REMUX.AVC.DTS-HD.MA.5.1-FGT.mkv

iMN0 Jul 18th, 2018 34 Never
Not a member of Pastebin yet? Sign Up, it unlocks many cool features!
  1. General
  2. Unique ID                                : 17055750794300798478392630954464560432 (0xCD4D1702C4D85D660DAC0E21826C530)
  3. Complete name                            : Dark.Crimes.2016.1080p.BluRay.REMUX.AVC.DTS-HD.MA.5.1-FGT.mkv
  4. Format                                   : Matroska
  5. Format version                           : Version 4 / Version 2
  6. File size                                : 18.5 GiB
  7. Duration                                 : 1h 32mn
  8. Overall bit rate mode                    : Variable
  9. Overall bit rate                         : 28.7 Mbps
  10. Movie name                               : Dark.Crimes.2016.1080p.BluRay.REMUX.AVC.DTS-HD.MA.5.1-FGT
  11. Encoded date                             : UTC 2018-07-18 09:30:42
  12. Writing application                      : mkvmerge v24.0.0 ('Beyond The Pale') 64-bit
  13. Writing library                          : libebml v1.3.6 + libmatroska v1.4.9
  14. Cover                                    : Yes
  15. Attachments                              : small_cover.jpg / small_cover_land.jpg / cover.jpg / cover_land.jpg
  16.  
  17. Video
  18. ID                                       : 1
  19. Format                                   : AVC
  20. Format/Info                              : Advanced Video Codec
  21. Format profile                           : High@L4.1
  22. Format settings, CABAC                   : Yes
  23. Format settings, ReFrames                : 3 frames
  24. Format settings, GOP                     : M=3, N=12
  25. Codec ID                                 : V_MPEG4/ISO/AVC
  26. Duration                                 : 1h 32mn
  27. Bit rate mode                            : Variable
  28. Bit rate                                 : 19.3 Mbps
  29. Maximum bit rate                         : 25.0 Mbps
  30. Width                                    : 1 920 pixels
  31. Height                                   : 1 080 pixels
  32. Display aspect ratio                     : 16:9
  33. Frame rate mode                          : Constant
  34. Frame rate                               : 23.976 (24000/1001) fps
  35. Standard                                 : NTSC
  36. Color space                              : YUV
  37. Chroma subsampling                       : 4:2:0
  38. Bit depth                                : 8 bits
  39. Scan type                                : Progressive
  40. Bits/(Pixel*Frame)                       : 0.388
  41. Stream size                              : 12.4 GiB (67%)
  42. Title                                    : Dark.Crimes.2016.1080p.BluRay.REMUX.AVC.DTS-HD.MA.5.1-FGT
  43. Language                                 : English
  44. Default                                  : No
  45. Forced                                   : No
  46. Color range                              : Limited
  47. Color primaries                          : BT.709
  48. Transfer characteristics                 : BT.709
  49. Matrix coefficients                      : BT.709
  50.  
  51. Audio #1
  52. ID                                       : 2
  53. Format                                   : DTS
  54. Format/Info                              : Digital Theater Systems
  55. Format profile                           : MA / Core
  56. Mode                                     : 16
  57. Format settings, Endianness              : Big
  58. Codec ID                                 : A_DTS
  59. Duration                                 : 1h 32mn
  60. Bit rate mode                            : Variable / Constant
  61. Bit rate                                 : 3 743 Kbps / 1 509 Kbps
  62. Channel(s)                               : 6 channels
  63. Channel positions                        : Front: L C R, Side: L R, LFE
  64. Sampling rate                            : 48.0 KHz
  65. Frame rate                               : 93.750 fps (512 spf)
  66. Bit depth                                : 24 bits
  67. Compression mode                         : Lossless / Lossy
  68. Stream size                              : 2.41 GiB (13%)
  69. Title                                    : Dark.Crimes.2016.1080p.BluRay.REMUX.AVC.DTS-HD.MA.5.1-FGT
  70. Language                                 : English
  71. Default                                  : Yes
  72. Forced                                   : No
  73.  
  74. Audio #2
  75. ID                                       : 3
  76. Format                                   : DTS
  77. Format/Info                              : Digital Theater Systems
  78. Mode                                     : 16
  79. Format settings, Endianness              : Big
  80. Codec ID                                 : A_DTS
  81. Duration                                 : 1h 32mn
  82. Bit rate mode                            : Constant
  83. Bit rate                                 : 1 509 Kbps
  84. Channel(s)                               : 6 channels
  85. Channel positions                        : Front: L C R, Side: L R, LFE
  86. Sampling rate                            : 48.0 KHz
  87. Frame rate                               : 93.750 fps (512 spf)
  88. Bit depth                                : 24 bits
  89. Compression mode                         : Lossy
  90. Stream size                              : 996 MiB (5%)
  91. Title                                    : Dark.Crimes.2016.1080p.BluRay.REMUX.AVC.DTS-HD.MA.5.1-FGT
  92. Language                                 : English
  93. Default                                  : No
  94. Forced                                   : No
  95.  
  96. Audio #3
  97. ID                                       : 4
  98. Format                                   : DTS
  99. Format/Info                              : Digital Theater Systems
  100. Format profile                           : MA / Core
  101. Mode                                     : 16
  102. Format settings, Endianness              : Big
  103. Codec ID                                 : A_DTS
  104. Duration                                 : 1h 32mn
  105. Bit rate mode                            : Variable / Constant
  106. Bit rate                                 : 2 608 Kbps / 1 509 Kbps
  107. Channel(s)                               : 6 channels
  108. Channel positions                        : Front: L C R, Side: L R, LFE
  109. Sampling rate                            : 48.0 KHz
  110. Frame rate                               : 93.750 fps (512 spf)
  111. Bit depth                                : 24 bits
  112. Compression mode                         : Lossless / Lossy
  113. Stream size                              : 1.68 GiB (9%)
  114. Title                                    : Dark.Crimes.2016.1080p.BluRay.REMUX.AVC.DTS-HD.MA.5.1-FGT
  115. Language                                 : French
  116. Default                                  : No
  117. Forced                                   : No
  118.  
  119. Audio #4
  120. ID                                       : 5
  121. Format                                   : DTS
  122. Format/Info                              : Digital Theater Systems
  123. Mode                                     : 16
  124. Format settings, Endianness              : Big
  125. Codec ID                                 : A_DTS
  126. Duration                                 : 1h 32mn
  127. Bit rate mode                            : Constant
  128. Bit rate                                 : 1 509 Kbps
  129. Channel(s)                               : 6 channels
  130. Channel positions                        : Front: L C R, Side: L R, LFE
  131. Sampling rate                            : 48.0 KHz
  132. Frame rate                               : 93.750 fps (512 spf)
  133. Bit depth                                : 24 bits
  134. Compression mode                         : Lossy
  135. Stream size                              : 994 MiB (5%)
  136. Title                                    : Dark.Crimes.2016.1080p.BluRay.REMUX.AVC.DTS-HD.MA.5.1-FGT
  137. Language                                 : French
  138. Default                                  : No
  139. Forced                                   : No
  140.  
  141. Text #1
  142. ID                                       : 6
  143. Format                                   : PGS
  144. Muxing mode                              : zlib
  145. Codec ID                                 : S_HDMV/PGS
  146. Codec ID/Info                            : Picture based subtitle format used on BDs/HD-DVDs
  147. Duration                                 : 1h 29mn
  148. Bit rate                                 : 15.9 Kbps
  149. Count of elements                        : 1429
  150. Stream size                              : 10.2 MiB (0%)
  151. Title                                    : English-PGS
  152. Language                                 : English
  153. Default                                  : Yes
  154. Forced                                   : No
  155.  
  156. Text #2
  157. ID                                       : 7
  158. Format                                   : PGS
  159. Muxing mode                              : zlib
  160. Codec ID                                 : S_HDMV/PGS
  161. Codec ID/Info                            : Picture based subtitle format used on BDs/HD-DVDs
  162. Duration                                 : 1h 29mn
  163. Bit rate                                 : 17.4 Kbps
  164. Count of elements                        : 1825
  165. Stream size                              : 11.2 MiB (0%)
  166. Title                                    : French-PGS
  167. Language                                 : French
  168. Default                                  : No
  169. Forced                                   : No
  170.  
  171. Text #3
  172. ID                                       : 8
  173. Format                                   : PGS
  174. Muxing mode                              : zlib
  175. Codec ID                                 : S_HDMV/PGS
  176. Codec ID/Info                            : Picture based subtitle format used on BDs/HD-DVDs
  177. Duration                                 : 3mn 45s
  178. Bit rate                                 : 598 bps
  179. Count of elements                        : 5
  180. Stream size                              : 16.5 KiB (0%)
  181. Title                                    : French-FORCED-PGS
  182. Language                                 : French
  183. Default                                  : No
  184. Forced                                   : No
  185.  
  186. Menu
  187. 00:00:00.000                             : en:Chapter 01
  188. 00:04:38.444                             : en:Chapter 02
  189. 00:08:48.319                             : en:Chapter 03
  190. 00:14:10.683                             : en:Chapter 04
  191. 00:19:16.321                             : en:Chapter 05
  192. 00:24:20.000                             : en:Chapter 06
  193. 00:30:11.601                             : en:Chapter 07
  194. 00:38:29.390                             : en:Chapter 08
  195. 00:44:41.679                             : en:Chapter 09
  196. 00:53:13.899                             : en:Chapter 10
  197. 01:01:00.573                             : en:Chapter 11
  198. 01:05:51.113                             : en:Chapter 12
  199. 01:11:25.489                             : en:Chapter 13
  200. 01:16:31.128                             : en:Chapter 14
  201. 01:24:09.544                             : en:Chapter 15
  202. 01:29:43.795                             : en:Chapter 16
RAW Paste Data
We use cookies for various purposes including analytics. By continuing to use Pastebin, you agree to our use of cookies as described in the Cookies Policy. OK, I Understand
 
Top