Guest User

Irreversible.2002.1080p.BluRay.x264-PHOBOS

a guest
May 12th, 2019
63
Never
Not a member of Pastebin yet? Sign Up, it unlocks many cool features!
  1. General
  2. Unique ID                                : 223518165997285749395889391633889619919 (0xA828086C30FC25EDA0DBC3013A9DEFCF)
  3. Complete name                            : Irreversible.2002.1080p.BluRay.x264-PHOBOS.mkv
  4. Format                                   : Matroska
  5. Format version                           : Version 2
  6. File size                                : 6.55 GiB
  7. Duration                                 : 1 h 33 min
  8. Overall bit rate                         : 10.0 Mb/s
  9. Encoded date                             : UTC 2014-07-26 19:32:15
  10. Writing application                      : mkvmerge v7.0.0 ('Where We Going') 32bit built on Jun  9 2014 15:08:34
  11. Writing library                          : libebml v1.3.0 + libmatroska v1.4.1
  12.  
  13. Video
  14. ID                                       : 1
  15. Format                                   : AVC
  16. Format/Info                              : Advanced Video Codec
  17. Format profile                           : High@L4.1
  18. Format settings                          : CABAC / 5 Ref Frames
  19. Format settings, CABAC                   : Yes
  20. Format settings, Reference frames        : 5 frames
  21. Codec ID                                 : V_MPEG4/ISO/AVC
  22. Duration                                 : 1 h 33 min
  23. Bit rate                                 : 9 393 kb/s
  24. Width                                    : 1 920 pixels
  25. Height                                   : 856 pixels
  26. Display aspect ratio                     : 2.25:1
  27. Frame rate mode                          : Constant
  28. Frame rate                               : 25.000 FPS
  29. Color space                              : YUV
  30. Chroma subsampling                       : 4:2:0
  31. Bit depth                                : 8 bits
  32. Scan type                                : Progressive
  33. Bits/(Pixel*Frame)                       : 0.229
  34. Stream size                              : 6.13 GiB (94%)
  35. Writing library                          : x264 core 142 r2431 ac76440
  36. Encoding settings                        : cabac=1 / ref=5 / deblock=1:0:0 / analyse=0x3:0x113 / me=umh / subme=8 / psy=1 / psy_rd=1.00:0.00 / mixed_ref=1 / me_range=16 / chroma_me=1 / trellis=1 / 8x8dct=1 / cqm=0 / deadzone=21,11 / fast_pskip=1 / chroma_qp_offset=-2 / threads=12 / lookahead_threads=2 / sliced_threads=0 / nr=0 / decimate=1 / interlaced=0 / bluray_compat=0 / constrained_intra=0 / bframes=3 / b_pyramid=2 / b_adapt=2 / b_bias=0 / direct=3 / weightb=1 / open_gop=0 / weightp=2 / keyint=250 / keyint_min=25 / scenecut=40 / intra_refresh=0 / rc_lookahead=50 / rc=2pass / mbtree=1 / bitrate=9393 / ratetol=1.0 / qcomp=0.60 / qpmin=0 / qpmax=69 / qpstep=4 / cplxblur=20.0 / qblur=0.5 / vbv_maxrate=62500 / vbv_bufsize=78125 / nal_hrd=none / filler=0 / ip_ratio=1.40 / aq=1:1.00
  37. Language                                 : English
  38. Default                                  : Yes
  39. Forced                                   : No
  40.  
  41. Audio
  42. ID                                       : 2
  43. Format                                   : AC-3
  44. Format/Info                              : Audio Coding 3
  45. Commercial name                          : Dolby Digital
  46. Codec ID                                 : A_AC3
  47. Duration                                 : 1 h 33 min
  48. Bit rate mode                            : Constant
  49. Bit rate                                 : 640 kb/s
  50. Channel(s)                               : 6 channels
  51. Channel layout                           : L R C LFE Ls Rs
  52. Sampling rate                            : 48.0 kHz
  53. Frame rate                               : 31.250 FPS (1536 SPF)
  54. Bit depth                                : 16 bits
  55. Compression mode                         : Lossy
  56. Stream size                              : 428 MiB (6%)
  57. Language                                 : French
  58. Service kind                             : Complete Main
  59. Default                                  : Yes
  60. Forced                                   : No
  61.  
  62. Text
  63. ID                                       : 3
  64. Format                                   : UTF-8
  65. Codec ID                                 : S_TEXT/UTF8
  66. Codec ID/Info                            : UTF-8 Plain Text
  67. Duration                                 : 1 h 28 min
  68. Bit rate                                 : 47 b/s
  69. Count of elements                        : 1016
  70. Stream size                              : 31.0 KiB (0%)
  71. Language                                 : English
  72. Default                                  : Yes
  73. Forced                                   : No
  74.  
  75. Menu
  76. 00:00:00.000                             : en:00:00:00.000
  77. 00:04:28.319                             : en:00:04:28.319
  78. 00:08:08.600                             : en:00:08:08.600
  79. 00:11:44.038                             : en:00:11:44.038
  80. 00:14:51.918                             : en:00:14:51.918
  81. 00:18:28.880                             : en:00:18:28.880
  82. 00:24:29.278                             : en:00:24:29.278
  83. 00:29:41.519                             : en:00:29:41.519
  84. 00:34:10.480                             : en:00:34:10.480
  85. 00:40:53.000                             : en:00:40:53.000
  86. 00:53:57.880                             : en:00:53:57.880
  87. 00:58:42.199                             : en:00:58:42.199
  88. 01:06:19.360                             : en:01:06:19.360
  89. 01:15:22.600                             : en:01:15:22.600
  90. 01:28:04.439                             : en:01:28:04.439
  91. 01:33:15.158                             : en:01:33:15.158
RAW Paste Data