daily pastebin goal
41%
SHARE
TWEET

untitled

loverboy94 Dec 12th, 2018 92 Never
Not a member of Pastebin yet? Sign Up, it unlocks many cool features!
  1. *** General
  2. Format                                    :  Matroska
  3. Format version                            :  Version 4
  4. File size                                 :  4.93 GiB
  5. Duration                                  :  2 h 3 min
  6. Overall bit rate                          :  5 730 kb/s
  7. Encoded date                              :  UTC 2018-12-10 03:36:43
  8. Writing application                       :  mkvmerge v29.0.0 ('Like It Or Not') 64-bit
  9. Writing library                           :  libebml v1.3.6 + libmatroska v1.4.9
  10. Writing frontend                          :  StaxRip v1.9.0.0
  11.  
  12. *** Video
  13. ID                                        :  1
  14. Format                                    :  HEVC
  15. Format/Info                               :  High Efficiency Video Coding
  16. Format profile                            :  Main 10@L4@Main
  17. Codec ID                                  :  V_MPEGH/ISO/HEVC
  18. Duration                                  :  2 h 3 min
  19. Bit rate                                  :  5 033 kb/s
  20. Width                                     :  1 920 pixels
  21. Height                                    :  800 pixels
  22. Display aspect ratio                      :  2.40:1
  23. Frame rate mode                           :  Constant
  24. Frame rate                                :  23.976 (24000/1001) FPS
  25. Color space                               :  YUV
  26. Chroma subsampling                        :  4:2:0
  27. Bit depth                                 :  10 bits
  28. Bits/(Pixel*Frame)                        :  0.137
  29. Stream size                               :  4.33 GiB (88%)
  30. Writing library                           :  x265 2.9+9-f74003e88622:[Windows][GCC 8.2.0][64 bit] 10bit
  31. Encoding settings                         :  cpuid=1049583 / frame-threads=3 / numa-pools=8 / wpp / no-pmode / no-pme / no-psnr / no-ssim / log-level=2 / input-csp=1 / input-res=1920x800 / interlace=0 / total-frames=177114 / level-idc=0 / high-tier=1 / uhd-bd=0 / ref=4 / no-allow-non-conformance / no-repeat-headers / annexb / no-aud / no-hrd / info / hash=0 / no-temporal-layers / open-gop / min-keyint=23 / keyint=250 / gop-lookahead=0 / bframes=8 / b-adapt=2 / b-pyramid / bframe-bias=0 / rc-lookahead=80 / lookahead-slices=4 / scenecut=40 / radl=0 / no-intra-refresh / ctu=64 / min-cu-size=8 / no-rect / no-amp / max-tu-size=32 / tu-inter-depth=1 / tu-intra-depth=1 / limit-tu=0 / rdoq-level=2 / dynamic-rd=0.00 / no-ssim-rd / signhide / no-tskip / nr-intra=0 / nr-inter=0 / no-constrained-intra / no-strong-intra-smoothing / max-merge=3 / limit-refs=3 / limit-modes / me=3 / subme=5 / merange=57 / temporal-mvp / weightp / no-weightb / no-analyze-src-pics / deblock=-3:-3 / no-sao / no-sao-non-deblock / rd=4 / no-early-skip / rskip / no-fast-intra / no-tskip-fast / no-cu-lossless / no-b-intra / no-splitrd-skip / rdpenalty=0 / psy-rd=2.00 / psy-rdoq=1.00 / no-rd-refine / no-lossless / cbqpoffs=0 / crqpoffs=0 / rc=crf / crf=18.0 / qcomp=0.60 / qpstep=4 / stats-write=0 / stats-read=0 / ipratio=1.40 / pbratio=1.30 / aq-mode=3 / aq-strength=1.00 / cutree / zone-count=0 / no-strict-cbr / qg-size=32 / no-rc-grain / qpmax=69 / qpmin=0 / no-const-vbv / sar=0 / overscan=0 / videoformat=5 / range=0 / colorprim=2 / transfer=2 / colormatrix=2 / chromaloc=0 / display-window=0 / max-cll=0,0 / min-luma=0 / max-luma=1023 / log2-max-poc-lsb=8 / vui-timing-info / vui-hrd-info / slices=1 / no-opt-qp-pps / no-opt-ref-list-length-pps / no-multi-pass-opt-rps / scenecut-bias=0.05 / no-opt-cu-delta-qp / no-aq-motion / no-hdr / no-hdr-opt / no-dhdr10-opt / no-idr-recovery-sei / analysis-reuse-level=5 / scale-factor=0 / refine-intra=0 / refine-inter=0 / refine-mv=0 / no-limit-sao / ctu-info=0 / no-lowpass-dct / refine-mv-type=0 / copy-pic=1 / max-ausize-factor=1.0 / no-dynamic-refine / no-single-sei
  32. Default                                   :  Yes
  33. Forced                                    :  No
  34.  
  35. *** Audio
  36. ID                                        :  2
  37. Format                                    :  AAC LC
  38. Format/Info                               :  Advanced Audio Codec Low Complexity
  39. Codec ID                                  :  A_AAC-2
  40. Duration                                  :  2 h 3 min
  41. Bit rate                                  :  682 kb/s
  42. Channel(s)                                :  8 channels
  43. Channel layout                            :  C L R Ls Rs Rls Rb LFE
  44. Sampling rate                             :  48.0 kHz
  45. Frame rate                                :  46.875 FPS (1024 SPF)
  46. Compression mode                          :  Lossy
  47. Delay relative to video                   :  20 ms
  48. Stream size                               :  601 MiB (12%)
  49. Language                                  :  English
  50. Default                                   :  No
  51. Forced                                    :  No
  52.  
  53. *** Text
  54. ID                                        :  3
  55. Format                                    :  PGS
  56. Muxing mode                               :  zlib
  57. Codec ID                                  :  S_HDMV/PGS
  58. Codec ID/Info                             :  Picture based subtitle format used on BDs/HD-DVDs
  59. Duration                                  :  2 h 1 min
  60. Bit rate                                  :  28.1 kb/s
  61. Count of elements                         :  2902
  62. Stream size                               :  24.3 MiB (0%)
  63. Language                                  :  English
  64. Default                                   :  No
  65. Forced                                    :  No
  66.  
  67. *** Menu
  68. 00 : 00:00.000                             : en:Chapter 1
  69. 00 : 09:22.562                             : en:Chapter 2
  70. 00 : 19:03.225                             : en:Chapter 3
  71. 00 : 30:25.532                             : en:Chapter 4
  72. 00 : 39:10.097                             : en:Chapter 5
  73. 00 : 49:43.438                             : en:Chapter 6
  74. 00 : 59:27.188                             : en:Chapter 7
  75. 01 : 09:50.186                             : en:Chapter 8
  76. 01 : 19:11.246                             : en:Chapter 9
  77. 01 : 29:57.266                             : en:Chapter 10
  78. 01 : 40:14.758                             : en:Chapter 11
  79. 01 : 52:14.728                             : en:Chapter 12
  80. 01 : 56:10.088                             : en:Chapter 13
RAW Paste Data
We use cookies for various purposes including analytics. By continuing to use Pastebin, you agree to our use of cookies as described in the Cookies Policy. OK, I Understand
 
Top