Guest User

Untitled

a guest
Mar 24th, 2020
17
Never
Not a member of Pastebin yet? Sign Up, it unlocks many cool features!
  1. Raw Conversion Log
  2.  
  3.  
  4. ==========================================
  5. Pre-Check Configurations
  6. ==========================================
  7.  
  8. File to be converted
  9. --------------------
  10. Initializing File 15850747012fcdb.mp4 and pre checking configurations...
  11.  
  12. System hardware Information
  13. ---------------------------
  14. Unable log System hardware information, plaese install "lshw"
  15.  
  16. Temporary Uploading
  17. -------------------
  18. File Uploaded to Temp directory successfully and video conversion file is being executed !
  19.  
  20. Video Conversion File Execution
  21. -------------------------------
  22. Video Converson File executed successfully with Target File > !15850747012fcdb.flv
  23.  
  24.  
  25. ==========================================
  26. Starting Conversion Log
  27. ==========================================
  28.  
  29. Getting Arguments
  30. -----------------
  31. Filename : 15850747012fcdb.flv
  32. File directory : 2020/03/24
  33. Log file : /home/vidcafec/public_html/files/logs/2020/03/24/15850747012fcdb.log
  34.  
  35.  
  36. Conversion queue
  37. ----------------
  38. Getting the file information from the queue for conversion
  39.  
  40. Conversion queue
  41. ----------------
  42. File has been moved from Temporary dir to Conversion Queue
  43.  
  44. Parsing FFmpeg Configurations
  45. -----------------------------
  46. use_video_rate : 1
  47. use_video_bit_rate : 1
  48. use_audio_rate : 1
  49. use_audio_bit_rate : 1
  50. use_audio_codec : 1
  51. use_video_codec : 1
  52. format : mp4
  53. video_codec : flv
  54. audio_codec : libmp3lame
  55. audio_rate : 22050
  56. audio_bitrate : 128000
  57. video_rate : 25
  58. video_bitrate : 512000
  59. video_bitrate_hd : 500000
  60. normal_res :
  61. high_res :
  62. max_video_duration : 320
  63. resize : max
  64. outputPath : 2020/03/24/
  65. cb_combo_res : no
  66. gen_240 : yes
  67. gen_360 : yes
  68. gen_480 : yes
  69. gen_720 :
  70. gen_1080 :
  71.  
  72.  
  73. Starting Conversion
  74. -------------------
  75. Started on 2020-03-24 18:31:46 - 2020 Mar 24
  76.  
  77. Checking File...
  78. File : /home/vidcafec/public_html/files/conversion_queue/15850747012fcdb.flv
  79.  
  80. File Exists
  81. -----------
  82. Yes
  83.  
  84. Preparing file...
  85. -----------------
  86. format :
  87. duration : 10.82
  88. size : 3362240
  89. bitrate : 0
  90. video_width : 0
  91. video_height : 0
  92. video_wh_ratio : N/A
  93. video_codec :
  94. video_rate :
  95. video_bitrate : 0
  96. video_color : N/A
  97. audio_codec :
  98. audio_bitrate : 0
  99. audio_rate : 0
  100. audio_channels : 0
  101. path : /home/vidcafec/public_html/files/conversion_queue/15850747012fcdb.flv
  102. rotation : 0
  103.  
  104.  
  105. Thumbs Generation
  106. -----------------
  107. Starting
  108.  
  109. Thumbs Files
  110. ------------
  111.  
  112. Command : /home/vidcafec/ffmpeg/ffmpeg -i /home/vidcafec/public_html/files/conversion_queue/15850747012fcdb.flv -an -y -f image2 -vframes 5 /home/vidcafec/public_html/files/thumbs/2020/03/24/15850747012fcdb-original-1.jpg
  113. File : /home/vidcafec/public_html/files/thumbs/2020/03/24/15850747012fcdb-original-1.jpg
  114. Command : /home/vidcafec/ffmpeg/ffmpeg -i /home/vidcafec/public_html/files/conversion_queue/15850747012fcdb.flv -an -s 168x105 -y -f image2 -vframes 5 /home/vidcafec/public_html/files/thumbs/2020/03/24/15850747012fcdb-168x105-1.jpg
  115. File : /home/vidcafec/public_html/files/thumbs/2020/03/24/15850747012fcdb-168x105-1.jpg
  116. Command : /home/vidcafec/ffmpeg/ffmpeg -i /home/vidcafec/public_html/files/conversion_queue/15850747012fcdb.flv -an -s 416x260 -y -f image2 -vframes 5 /home/vidcafec/public_html/files/thumbs/2020/03/24/15850747012fcdb-416x260-1.jpg
  117. File : /home/vidcafec/public_html/files/thumbs/2020/03/24/15850747012fcdb-416x260-1.jpg
  118. Command : /home/vidcafec/ffmpeg/ffmpeg -i /home/vidcafec/public_html/files/conversion_queue/15850747012fcdb.flv -an -s 632x395 -y -f image2 -vframes 5 /home/vidcafec/public_html/files/thumbs/2020/03/24/15850747012fcdb-632x395-1.jpg
  119. File : /home/vidcafec/public_html/files/thumbs/2020/03/24/15850747012fcdb-632x395-1.jpg
  120. Command : /home/vidcafec/ffmpeg/ffmpeg -i /home/vidcafec/public_html/files/conversion_queue/15850747012fcdb.flv -an -s 768x432 -y -f image2 -vframes 5 /home/vidcafec/public_html/files/thumbs/2020/03/24/15850747012fcdb-768x432-1.jpg
  121. File : /home/vidcafec/public_html/files/thumbs/2020/03/24/15850747012fcdb-768x432-1.jpg
  122. ====== End : Thumbs Generation =======
  123.  
  124.  
  125. Converiosn Ouput
  126. ----------------
  127.  
  128. ======Converting Video=========
  129.  
  130.  
  131. =======Low Resolution Conversion=======
  132.  
  133.  
  134. Sarting : Generating Low resolution video @ 2020-03-24 18:31:47
  135.  
  136. Converting Video SD File
  137.  
  138. Command : /home/vidcafec/ffmpeg/ffmpeg -i /home/vidcafec/public_html/files/conversion_queue/15850747012fcdb.flv -vcodec flv -acodec libmp3lame -s 1280x720 -preset medium -f mp4 -b:v 512000 -minrate 512000 -maxrate 512000 -b:a 128000 -minrate 128000 -maxrate 128000 -r 25 -ar 22050 /home/vidcafec/public_html/files/videos/2020/03/24//15850747012fcdb-sd.mp4
  139.  
  140. ffmpeg output : ffmpeg version N-51439-g6b978da-static http://johnvansickle.com/ffmpeg/ Copyright (c) 2000-2015 the FFmpeg developers
  141. built with gcc 5.2.1 (Debian 5.2.1-26) 20151125
  142. configuration: --enable-gpl --enable-version3 --disable-shared --disable-debug --enable-runtime-cpudetect --enable-libmp3lame --enable-libx264 --enable-libx265 --enable-libwebp --enable-libspeex --enable-libvorbis --enable-libvpx --enable-libfreetype --enable-fontconfig --enable-libxvid --enable-libopencore-amrnb --enable-libopencore-amrwb --enable-libtheora --enable-libvo-aacenc --enable-libvo-amrwbenc --enable-gray --enable-libopenjpeg --enable-libopus --enable-libass --enable-gnutls --enable-libvidstab --enable-libsoxr --enable-frei0r --enable-libfribidi --disable-indev=sndio --disable-outdev=sndio --cc=gcc
  143. libavutil 55. 9.100 / 55. 9.100
  144. libavcodec 57. 16.101 / 57. 16.101
  145. libavformat 57. 19.100 / 57. 19.100
  146. libavdevice 57. 0.100 / 57. 0.100
  147. libavfilter 6. 17.100 / 6. 17.100
  148. libswscale 4. 0.100 / 4. 0.100
  149. libswresample 2. 0.101 / 2. 0.101
  150. libpostproc 54. 0.100 / 54. 0.100
  151. Input #0, flv, from '/home/vidcafec/public_html/files/conversion_queue/15850747012fcdb.flv':
  152. Metadata:
  153. encoder : Lavf58.29.100
  154. Duration: 00:00:10.90, start: 0.067000, bitrate: 2467 kb/s
  155. Stream #0:0: Video: h264 (High), yuv420p, 1280x720, 2500 kb/s, 30.30 fps, 30 tbr, 1k tbn, 60 tbc
  156. Stream #0:1: Audio: aac (LC), 44100 Hz, stereo, fltp, 160 kb/s
  157. Codec AVOption preset (Configuration preset) specified for output file #0 (/home/vidcafec/public_html/files/videos/2020/03/24//15850747012fcdb-sd.mp4) has not been used for any stream. The most likely reason is either wrong type (e.g. a video option with no video streams) or that it is a private option of some encoder which was not actually used for any stream.
  158. [AVFilterGraph @ 0x5729ea0] Error initializing threading.
  159. [AVFilterGraph @ 0x5729ea0] Error creating filter 'anull'
  160. Error opening filters!
  161.  
  162.  
  163. outputFile : /home/vidcafec/public_html/files/videos/2020/03/24//15850747012fcdb-sd.mp4
  164.  
  165. Sarting : MP4Box Conversion for SD
  166.  
  167. MP4Box Command : /home/vidcafec/ffmpeg/MP4Box -inter 0.5 /home/vidcafec/public_html/files/videos/2020/03/24//15850747012fcdb-sd.mp4 -tmp /home/vidcafec/public_html/files/temp
  168.  
  169. output : Error opening file /home/vidcafec/public_html/files/videos/2020/03/24//15850747012fcdb-sd.mp4: IsoMedia File is truncated
  170.  
  171.  
  172. Conversion Status : Successful @ 2020-03-24 18:31:47
  173.  
  174.  
  175. OutPut Deatils
  176. --------------
  177. format :
  178. duration : 0
  179. size : 0
  180. bitrate : 0
  181. video_width : 0
  182. video_height : 0
  183. video_wh_ratio : N/A
  184. video_codec :
  185. video_rate :
  186. video_bitrate : 0
  187. video_color : N/A
  188. audio_codec :
  189. audio_bitrate : 0
  190. audio_rate : 0
  191. audio_channels : 0
  192. path : /home/vidcafec/public_html/files/videos/2020/03/24//15850747012fcdb-sd.mp4
  193. rotation : 0
  194.  
  195.  
  196. Converiosn Ouput
  197. ----------------
  198.  
  199. ======Converting Video=========
  200.  
  201.  
  202. =======Low Resolution Conversion=======
  203.  
  204.  
  205. Sarting : Generating Low resolution video @ 2020-03-24 18:31:47
  206.  
  207. Converting Video SD File
  208.  
  209. Command : /home/vidcafec/ffmpeg/ffmpeg -i /home/vidcafec/public_html/files/conversion_queue/15850747012fcdb.flv -vcodec flv -acodec libmp3lame -s 1280x720 -preset medium -f mp4 -b:v 512000 -minrate 512000 -maxrate 512000 -b:a 128000 -minrate 128000 -maxrate 128000 -r 25 -ar 22050 /home/vidcafec/public_html/files/videos/2020/03/24//15850747012fcdb-sd.mp4
  210.  
  211. ffmpeg output : ffmpeg version N-51439-g6b978da-static http://johnvansickle.com/ffmpeg/ Copyright (c) 2000-2015 the FFmpeg developers
  212. built with gcc 5.2.1 (Debian 5.2.1-26) 20151125
  213. configuration: --enable-gpl --enable-version3 --disable-shared --disable-debug --enable-runtime-cpudetect --enable-libmp3lame --enable-libx264 --enable-libx265 --enable-libwebp --enable-libspeex --enable-libvorbis --enable-libvpx --enable-libfreetype --enable-fontconfig --enable-libxvid --enable-libopencore-amrnb --enable-libopencore-amrwb --enable-libtheora --enable-libvo-aacenc --enable-libvo-amrwbenc --enable-gray --enable-libopenjpeg --enable-libopus --enable-libass --enable-gnutls --enable-libvidstab --enable-libsoxr --enable-frei0r --enable-libfribidi --disable-indev=sndio --disable-outdev=sndio --cc=gcc
  214. libavutil 55. 9.100 / 55. 9.100
  215. libavcodec 57. 16.101 / 57. 16.101
  216. libavformat 57. 19.100 / 57. 19.100
  217. libavdevice 57. 0.100 / 57. 0.100
  218. libavfilter 6. 17.100 / 6. 17.100
  219. libswscale 4. 0.100 / 4. 0.100
  220. libswresample 2. 0.101 / 2. 0.101
  221. libpostproc 54. 0.100 / 54. 0.100
  222. Input #0, flv, from '/home/vidcafec/public_html/files/conversion_queue/15850747012fcdb.flv':
  223. Metadata:
  224. encoder : Lavf58.29.100
  225. Duration: 00:00:10.90, start: 0.067000, bitrate: 2467 kb/s
  226. Stream #0:0: Video: h264 (High), yuv420p, 1280x720, 2500 kb/s, 30.30 fps, 30 tbr, 1k tbn, 60 tbc
  227. Stream #0:1: Audio: aac (LC), 44100 Hz, stereo, fltp, 160 kb/s
  228. Codec AVOption preset (Configuration preset) specified for output file #0 (/home/vidcafec/public_html/files/videos/2020/03/24//15850747012fcdb-sd.mp4) has not been used for any stream. The most likely reason is either wrong type (e.g. a video option with no video streams) or that it is a private option of some encoder which was not actually used for any stream.
  229. [AVFilterGraph @ 0x5729ea0] Error initializing threading.
  230. [AVFilterGraph @ 0x5729ea0] Error creating filter 'anull'
  231. Error opening filters!
  232.  
  233.  
  234. outputFile : /home/vidcafec/public_html/files/videos/2020/03/24//15850747012fcdb-sd.mp4
  235.  
  236. Sarting : MP4Box Conversion for SD
  237.  
  238. MP4Box Command : /home/vidcafec/ffmpeg/MP4Box -inter 0.5 /home/vidcafec/public_html/files/videos/2020/03/24//15850747012fcdb-sd.mp4 -tmp /home/vidcafec/public_html/files/temp
  239.  
  240. output : Error opening file /home/vidcafec/public_html/files/videos/2020/03/24//15850747012fcdb-sd.mp4: IsoMedia File is truncated
  241.  
  242.  
  243. Conversion Status : Successful @ 2020-03-24 18:31:47
  244.  
  245.  
  246. =======High Resolution Conversion=======
  247.  
  248.  
  249. Sarting : Generating high resolution video @ 2020-03-24 18:31:47
  250.  
  251. Converting Video HD File
  252.  
  253. Command : /home/vidcafec/ffmpeg/ffmpeg -i /home/vidcafec/public_html/files/conversion_queue/15850747012fcdb.flv -vcodec flv -acodec libmp3lame -s 1280x720 -preset slow -f mp4 -b:v 500000 -minrate 500000 -maxrate 500000 -b:a 128000 -minrate 128000 -maxrate 128000 -r 25 -ar 22050 /home/vidcafec/public_html/files/videos/2020/03/24//15850747012fcdb-hd.mp4 > /home/vidcafec/public_html/files/temp/15850747012fcdb.tmp
  254.  
  255. ffmpeg output : ffmpeg version N-51439-g6b978da-static http://johnvansickle.com/ffmpeg/ Copyright (c) 2000-2015 the FFmpeg developers
  256. built with gcc 5.2.1 (Debian 5.2.1-26) 20151125
  257. configuration: --enable-gpl --enable-version3 --disable-shared --disable-debug --enable-runtime-cpudetect --enable-libmp3lame --enable-libx264 --enable-libx265 --enable-libwebp --enable-libspeex --enable-libvorbis --enable-libvpx --enable-libfreetype --enable-fontconfig --enable-libxvid --enable-libopencore-amrnb --enable-libopencore-amrwb --enable-libtheora --enable-libvo-aacenc --enable-libvo-amrwbenc --enable-gray --enable-libopenjpeg --enable-libopus --enable-libass --enable-gnutls --enable-libvidstab --enable-libsoxr --enable-frei0r --enable-libfribidi --disable-indev=sndio --disable-outdev=sndio --cc=gcc
  258. libavutil 55. 9.100 / 55. 9.100
  259. libavcodec 57. 16.101 / 57. 16.101
  260. libavformat 57. 19.100 / 57. 19.100
  261. libavdevice 57. 0.100 / 57. 0.100
  262. libavfilter 6. 17.100 / 6. 17.100
  263. libswscale 4. 0.100 / 4. 0.100
  264. libswresample 2. 0.101 / 2. 0.101
  265. libpostproc 54. 0.100 / 54. 0.100
  266. Input #0, flv, from '/home/vidcafec/public_html/files/conversion_queue/15850747012fcdb.flv':
  267. Metadata:
  268. encoder : Lavf58.29.100
  269. Duration: 00:00:10.90, start: 0.067000, bitrate: 2467 kb/s
  270. Stream #0:0: Video: h264 (High), yuv420p, 1280x720, 2500 kb/s, 30.30 fps, 30 tbr, 1k tbn, 60 tbc
  271. Stream #0:1: Audio: aac (LC), 44100 Hz, stereo, fltp, 160 kb/s
  272. Codec AVOption preset (Configuration preset) specified for output file #0 (/home/vidcafec/public_html/files/videos/2020/03/24//15850747012fcdb-hd.mp4) has not been used for any stream. The most likely reason is either wrong type (e.g. a video option with no video streams) or that it is a private option of some encoder which was not actually used for any stream.
  273. [AVFilterGraph @ 0x4e8eea0] Error initializing threading.
  274. [AVFilterGraph @ 0x4e8eea0] Error creating filter 'anull'
  275. Error opening filters!
  276.  
  277.  
  278. Sarting : MP4Box Conversion for HD
  279.  
  280. MP4Box Command : /home/vidcafec/ffmpeg/MP4Box -inter 0.5 /home/vidcafec/public_html/files/videos/2020/03/24//15850747012fcdb-hd.mp4 -tmp /home/vidcafec/public_html/files/temp
  281.  
  282. output : Error opening file /home/vidcafec/public_html/files/videos/2020/03/24//15850747012fcdb-hd.mp4: IsoMedia File is truncated
  283.  
  284.  
  285. Conversion Status : Successful @ 2020-03-24 18:31:47
  286.  
  287.  
  288. OutPut Deatils
  289. --------------
  290. format :
  291. duration : 0
  292. size : 0
  293. bitrate : 0
  294. video_width : 0
  295. video_height : 0
  296. video_wh_ratio : N/A
  297. video_codec :
  298. video_rate :
  299. video_bitrate : 0
  300. video_color : N/A
  301. audio_codec :
  302. audio_bitrate : 0
  303. audio_rate : 0
  304. audio_channels : 0
  305. path : /home/vidcafec/public_html/files/videos/2020/03/24//15850747012fcdb-hd.mp4
  306. rotation : 0
  307.  
  308.  
  309. Conversion Completed
  310. --------------------
  311.  
  312.  
  313. Time Took : 1.0482 seconds
  314.  
  315. conversion_status : failed
RAW Paste Data