Guest User

E01

a guest
Feb 8th, 2018
228
Never
Not a member of Pastebin yet? Sign Up, it unlocks many cool features!
  1. General
  2. Unique ID : 207479295343619904073898452056994530468 (0x9C170F0BD4860E09ABCC201C7C64C4A4)
  3. Complete name : [Cleo]Sinbad_no_Bouken_-_01_(Dual Audio_10bit_720p).mkv
  4. Format : Matroska
  5. Format version : Version 4 / Version 2
  6. File size : 162 MiB
  7. Duration : 23 min 57 s
  8. Overall bit rate : 948 kb/s
  9. Movie name : Encoded By Cleo
  10. Encoded date : UTC 2017-01-24 11:11:04
  11. Writing application : mkvmerge v9.2.0 ('Photograph') 64bit
  12. Writing library : libebml v1.3.3 + libmatroska v1.4.4
  13. Attachments : MATURASC.TTF / BERLINMYRIAD-BOLDALT.OTF / HoboStd.otf
  14.  
  15. Video
  16. ID : 1
  17. Format : AVC
  18. Format/Info : Advanced Video Codec
  19. Format profile : High 10@L5
  20. Format settings : CABAC / 16 Ref Frames
  21. Format settings, CABAC : Yes
  22. Format settings, RefFrames : 16 frames
  23. Codec ID : V_MPEG4/ISO/AVC
  24. Duration : 23 min 57 s
  25. Bit rate : 758 kb/s
  26. Width : 1 280 pixels
  27. Height : 720 pixels
  28. Display aspect ratio : 16:9
  29. Frame rate mode : Constant
  30. Frame rate : 23.976 (24000/1001) FPS
  31. Color space : YUV
  32. Chroma subsampling : 4:2:0
  33. Bit depth : 10 bits
  34. Scan type : Progressive
  35. Bits/(Pixel*Frame) : 0.034
  36. Stream size : 130 MiB (80%)
  37. Writing library : x264 core 142 r2431+42 c69a006 tMod [10-bit@all X86_64]
  38. Encoding settings : cabac=1 / ref=16 / deblock=1:0:0 / analyse=0x3:0x133 / me=umh / subme=10 / psy=1 / fade_compensate=0.00 / psy_rd=0.60:0.40 / mixed_ref=1 / me_range=24 / chroma_me=1 / trellis=2 / 8x8dct=1 / cqm=0 / deadzone=21,11 / fast_pskip=1 / chroma_qp_offset=-4 / threads=6 / lookahead_threads=1 / sliced_threads=0 / nr=0 / decimate=1 / interlaced=0 / bluray_compat=0 / constrained_intra=0 / fgo=0 / bframes=10 / b_pyramid=2 / b_adapt=2 / b_bias=0 / direct=3 / weightb=1 / open_gop=0 / weightp=2 / keyint=250 / keyint_min=23 / scenecut=40 / intra_refresh=0 / rc_lookahead=60 / rc=crf / mbtree=1 / crf=24.0000 / qcomp=0.60 / qpmin=0:0:0 / qpmax=81:81:81 / qpstep=4 / ip_ratio=1.40 / aq=2:1.00 / aq-sensitivity=10.00 / aq-factor=1.00:1.00:1.00 / aq2=0 / aq3=0
  39. Language : English
  40. Default : Yes
  41. Forced : No
  42.  
  43. Audio #1
  44. ID : 2
  45. Format : AAC
  46. Format/Info : Advanced Audio Codec
  47. Format profile : Main
  48. Codec ID : A_AAC-1
  49. Duration : 23 min 57 s
  50. Bit rate : 93.3 kb/s
  51. Channel(s) : 2 channels
  52. Channel positions : Front: L R
  53. Sampling rate : 48.0 kHz
  54. Frame rate : 46.875 FPS (1024 SPF)
  55. Compression mode : Lossy
  56. Stream size : 16.0 MiB (10%)
  57. Language : Japanese
  58. Default : No
  59. Forced : No
  60.  
  61. Audio #2
  62. ID : 3
  63. Format : AAC
  64. Format/Info : Advanced Audio Codec
  65. Format profile : Main
  66. Codec ID : A_AAC-1
  67. Duration : 23 min 56 s
  68. Bit rate : 93.3 kb/s
  69. Channel(s) : 2 channels
  70. Channel positions : Front: L R
  71. Sampling rate : 48.0 kHz
  72. Frame rate : 46.875 FPS (1024 SPF)
  73. Compression mode : Lossy
  74. Delay relative to video : 700 ms
  75. Stream size : 16.0 MiB (10%)
  76. Language : English
  77. Default : Yes
  78. Forced : No
  79.  
  80. Text
  81. ID : 4
  82. Format : ASS
  83. Codec ID : S_TEXT/ASS
  84. Codec ID/Info : Advanced Sub Station Alpha
  85. Duration : 22 min 11 s
  86. Bit rate : 104 b/s
  87. Count of elements : 297
  88. Compression mode : Lossless
  89. Stream size : 17.0 KiB (0%)
  90. Language : English
  91. Default : Yes
  92. Forced : No
  93.  
  94. Menu
  95. 00:00:00.000 : en:Prologue
  96. 00:01:44.980 : en:Opening
  97. 00:03:14.986 : en:Main
  98. 00:22:27.054 : en:Ending
RAW Paste Data