SHARE
TWEET

Scream.1996.BluRay.1080p.DTS-HD.MA.5.1.AVC.REMUX-FraMeSToR

a guest Jun 11th, 2019 74 Never
Not a member of Pastebin yet? Sign Up, it unlocks many cool features!
  1. General
  2. Unique ID                                : 131942093173005607365356233398005582928 (0x63431F70EA576DDF12239A960D34CC50)
  3. Complete name                            : Scream.1996.BluRay.1080p.DTS-HD.MA.5.1.AVC.REMUX-FraMeSToR.mkv
  4. Format                                   : Matroska
  5. Format version                           : Version 4
  6. File size                                : 25.6 GiB
  7. Duration                                 : 1 h 51 min
  8. Overall bit rate mode                    : Variable
  9. Overall bit rate                         : 32.9 Mb/s
  10. Movie name                               : Scream (1996)
  11. Encoded date                             : UTC 2019-02-01 11:24:41
  12. Writing application                      : mkvmerge v30.1.0 ('Forever And More') 64-bit
  13. Writing library                          : libebml v1.3.6 + libmatroska v1.4.9
  14.  
  15. Video
  16. ID                                       : 1
  17. Format                                   : AVC
  18. Format/Info                              : Advanced Video Codec
  19. Format profile                           : High@L4.1
  20. Format settings                          : CABAC / 4 Ref Frames
  21. Format settings, CABAC                   : Yes
  22. Format settings, Reference frames        : 4 frames
  23. Codec ID                                 : V_MPEG4/ISO/AVC
  24. Duration                                 : 1 h 51 min
  25. Bit rate mode                            : Variable
  26. Bit rate                                 : 28.0 Mb/s
  27. Maximum bit rate                         : 37.0 Mb/s
  28. Width                                    : 1 920 pixels
  29. Height                                   : 1 080 pixels
  30. Display aspect ratio                     : 16:9
  31. Frame rate mode                          : Constant
  32. Frame rate                               : 23.976 (24000/1001) FPS
  33. Color space                              : YUV
  34. Chroma subsampling                       : 4:2:0
  35. Bit depth                                : 8 bits
  36. Scan type                                : Progressive
  37. Bits/(Pixel*Frame)                       : 0.563
  38. Stream size                              : 21.7 GiB (85%)
  39. Default                                  : Yes
  40. Forced                                   : No
  41. Color range                              : Limited
  42. Color primaries                          : BT.709
  43. Transfer characteristics                 : BT.709
  44. Matrix coefficients                      : BT.709
  45.  
  46. Audio #1
  47. ID                                       : 2
  48. Format                                   : DTS XLL
  49. Format/Info                              : Digital Theater Systems
  50. Commercial name                          : DTS-HD Master Audio
  51. Codec ID                                 : A_DTS
  52. Duration                                 : 1 h 51 min
  53. Bit rate mode                            : Variable
  54. Bit rate                                 : 4 109 kb/s
  55. Channel(s)                               : 6 channels
  56. Channel layout                           : C L R Ls Rs LFE
  57. Sampling rate                            : 48.0 kHz
  58. Frame rate                               : 93.750 FPS (512 SPF)
  59. Bit depth                                : 24 bits
  60. Compression mode                         : Lossless
  61. Stream size                              : 3.19 GiB (12%)
  62. Title                                    : DTS-HD MA 5.1
  63. Language                                 : English
  64. Default                                  : Yes
  65. Forced                                   : No
  66.  
  67. Audio #2
  68. ID                                       : 3
  69. Format                                   : AC-3
  70. Format/Info                              : Audio Coding 3
  71. Commercial name                          : Dolby Digital
  72. Codec ID                                 : A_AC3
  73. Duration                                 : 1 h 50 min
  74. Bit rate mode                            : Constant
  75. Bit rate                                 : 448 kb/s
  76. Channel(s)                               : 2 channels
  77. Channel layout                           : L R
  78. Sampling rate                            : 48.0 kHz
  79. Frame rate                               : 31.250 FPS (1536 SPF)
  80. Bit depth                                : 16 bits
  81. Compression mode                         : Lossy
  82. Delay relative to video                  : 12 s 804 ms
  83. Stream size                              : 355 MiB (1%)
  84. Title                                    : Commentary by director Wes Craven and writer Kevin Williamson
  85. Language                                 : English
  86. Service kind                             : Complete Main
  87. Default                                  : No
  88. Forced                                   : No
  89.  
  90. Text #1
  91. ID                                       : 4
  92. Format                                   : PGS
  93. Codec ID                                 : S_HDMV/PGS
  94. Codec ID/Info                            : Picture based subtitle format used on BDs/HD-DVDs
  95. Duration                                 : 1 h 43 min
  96. Bit rate                                 : 58.5 kb/s
  97. Count of elements                        : 2817
  98. Stream size                              : 43.3 MiB (0%)
  99. Title                                    : English
  100. Language                                 : English
  101. Default                                  : No
  102. Forced                                   : No
  103.  
  104. Text #2
  105. ID                                       : 5
  106. Format                                   : PGS
  107. Codec ID                                 : S_HDMV/PGS
  108. Codec ID/Info                            : Picture based subtitle format used on BDs/HD-DVDs
  109. Duration                                 : 1 h 50 min
  110. Bit rate                                 : 66.7 kb/s
  111. Count of elements                        : 3463
  112. Stream size                              : 52.8 MiB (0%)
  113. Title                                    : English (SDH)
  114. Language                                 : English
  115. Default                                  : No
  116. Forced                                   : No
  117.  
  118. Text #3
  119. ID                                       : 6
  120. Format                                   : PGS
  121. Codec ID                                 : S_HDMV/PGS
  122. Codec ID/Info                            : Picture based subtitle format used on BDs/HD-DVDs
  123. Duration                                 : 1 h 43 min
  124. Bit rate                                 : 28.9 kb/s
  125. Count of elements                        : 1642
  126. Stream size                              : 21.4 MiB (0%)
  127. Title                                    : Dutch
  128. Language                                 : Dutch
  129. Default                                  : No
  130. Forced                                   : No
  131.  
  132. Text #4
  133. ID                                       : 7
  134. Format                                   : PGS
  135. Codec ID                                 : S_HDMV/PGS
  136. Codec ID/Info                            : Picture based subtitle format used on BDs/HD-DVDs
  137. Duration                                 : 1 h 43 min
  138. Bit rate                                 : 29.1 kb/s
  139. Count of elements                        : 2332
  140. Stream size                              : 21.5 MiB (0%)
  141. Title                                    : French
  142. Language                                 : French
  143. Default                                  : No
  144. Forced                                   : No
  145.  
  146. Text #5
  147. ID                                       : 8
  148. Format                                   : PGS
  149. Codec ID                                 : S_HDMV/PGS
  150. Codec ID/Info                            : Picture based subtitle format used on BDs/HD-DVDs
  151. Duration                                 : 1 h 43 min
  152. Bit rate                                 : 28.5 kb/s
  153. Count of elements                        : 2034
  154. Stream size                              : 21.1 MiB (0%)
  155. Title                                    : German
  156. Language                                 : German
  157. Default                                  : No
  158. Forced                                   : No
  159.  
  160. Text #6
  161. ID                                       : 9
  162. Format                                   : PGS
  163. Codec ID                                 : S_HDMV/PGS
  164. Codec ID/Info                            : Picture based subtitle format used on BDs/HD-DVDs
  165. Duration                                 : 1 h 43 min
  166. Bit rate                                 : 42.0 kb/s
  167. Count of elements                        : 2906
  168. Stream size                              : 31.1 MiB (0%)
  169. Title                                    : Italian (SDH)
  170. Language                                 : Italian
  171. Default                                  : No
  172. Forced                                   : No
  173.  
  174. Text #7
  175. ID                                       : 10
  176. Format                                   : PGS
  177. Codec ID                                 : S_HDMV/PGS
  178. Codec ID/Info                            : Picture based subtitle format used on BDs/HD-DVDs
  179. Duration                                 : 1 h 43 min
  180. Bit rate                                 : 40.1 kb/s
  181. Count of elements                        : 2439
  182. Stream size                              : 29.7 MiB (0%)
  183. Title                                    : Spanish (Latin American)
  184. Language                                 : Spanish
  185. Default                                  : No
  186. Forced                                   : No
  187.  
  188. Text #8
  189. ID                                       : 11
  190. Format                                   : PGS
  191. Codec ID                                 : S_HDMV/PGS
  192. Codec ID/Info                            : Picture based subtitle format used on BDs/HD-DVDs
  193. Duration                                 : 1 h 50 min
  194. Bit rate                                 : 35.1 kb/s
  195. Count of elements                        : 2705
  196. Stream size                              : 27.7 MiB (0%)
  197. Title                                    : French (Commentary)
  198. Language                                 : French
  199. Default                                  : No
  200. Forced                                   : No
  201.  
  202. Text #9
  203. ID                                       : 12
  204. Format                                   : PGS
  205. Codec ID                                 : S_HDMV/PGS
  206. Codec ID/Info                            : Picture based subtitle format used on BDs/HD-DVDs
  207. Duration                                 : 1 h 50 min
  208. Bit rate                                 : 49.8 kb/s
  209. Count of elements                        : 2250
  210. Stream size                              : 39.3 MiB (0%)
  211. Title                                    : German (Commentary)
  212. Language                                 : German
  213. Default                                  : No
  214. Forced                                   : No
  215.  
  216. Menu
  217. 00:00:12.804                             : en:Opening Credits
  218. 00:04:34.524                             : en:Wrong Number
  219. 00:13:11.582                             : en:It's Only Billy
  220. 00:17:25.127                             : en:Sidney's Turn
  221. 00:25:01.291                             : en:Questions
  222. 00:30:52.642                             : en:Story with a Punch
  223. 00:38:36.105                             : en:A Call for Sidney
  224. 00:45:36.233                             : en:Confrontation
  225. 00:53:34.502                             : en:Someone's Knocking
  226. 01:01:17.548                             : en:Beer Bust
  227. 01:07:57.865                             : en:The Rules
  228. 01:16:10.315                             : en:Not the One
  229. 01:23:12.779                             : en:No Help Here
  230. 01:27:40.964                             : en:Final Setup
  231. 01:31:04.959                             : en:Thwarted Plan
  232. 01:38:05.546                             : en:Face-Off
RAW Paste Data
We use cookies for various purposes including analytics. By continuing to use Pastebin, you agree to our use of cookies as described in the Cookies Policy. OK, I Understand
Top