Guest User

Untitled

a guest
Oct 16th, 2019
142
Never
Not a member of Pastebin yet? Sign Up, it unlocks many cool features!
  1. [CUETools log; Date: 2019-10-17 6:40:34 AM; Version: 2.1.6]
  2. CUETools DB: corrected 46 errors.
  3. [AccurateRip ID: 002913c2-01ebfb9d-f5102f10] found.
  4. Track [ CRC | V2 ] Status
  5. 01 [79ef9f05|1db177f0] (0+2/2) Accurately ripped
  6. 02 [2be728a7|d1ac7948] (0+2/2) Accurately ripped
  7. 03 [af906498|a9c864be] (0+2/2) Accurately ripped
  8. 04 [11ea4f8d|7bba4c7d] (0+2/2) Accurately ripped
  9. 05 [fcdfb4bd|2205ef70] (0+2/2) Accurately ripped
  10. 06 [afaeb968|2c6e5f58] (0+2/2) Accurately ripped
  11. 07 [411270bc|54b66775] (0+2/2) Accurately ripped
  12. 08 [0479c2a3|a3ff0014] (0+2/2) Accurately ripped
  13. 09 [2a888149|b2ad3d02] (0+2/2) Accurately ripped
  14. 10 [d30f0a6b|155f61cf] (0+2/2) Accurately ripped
  15. 11 [9b2ad12c|dcdd443b] (0+2/2) Accurately ripped
  16. 12 [282bbdfc|0b07f0ba] (0+2/2) Accurately ripped
  17. 13 [a1b6c93a|401b5ff3] (0+2/2) Accurately ripped
  18. 14 [f4f30f07|eeca57f0] (0+2/2) Accurately ripped
  19. 15 [2a4cbd37|bc089e25] (0+2/2) Accurately ripped
  20. 16 [3dfbfd83|477ff660] (0+2/2) Accurately ripped
  21.  
  22. Track Peak [ CRC32 ] [W/O NULL] [ LOG ]
  23. -- 100.0 [DA210BAC] [4403EA7D]
  24. 01 100.0 [91EE5A6D] [0297F124] CRC32
  25. 02 100.0 [1C8276C8] [F3A15E49] CRC32
  26. 03 100.0 [0F699E1C] [44D30BBA] CRC32
  27. 04 100.0 [6C1AE0CC] [607F5517] CRC32
  28. 05 100.0 [C8093434] [4E3AD2F9] CRC32
  29. 06 100.0 [B0AAD6D1] [5DF77AC7] CRC32
  30. 07 100.0 [5443884A] [8FF2CED1] CRC32
  31. 08 100.0 [B7E4454A] [1CD11654] CRC32
  32. 09 100.0 [1DE42577] [4DF09486] CRC32
  33. 10 100.0 [C587F004] [C11C9540] CRC32
  34. 11 100.0 [2002C6F4] [A6799362] CRC32
  35. 12 67.0 [398C4BD3] [D162783A] CRC32
  36. 13 100.0 [CF6C1605] [1CEC0361] CRC32
  37. 14 100.0 [1883EDC2] [E203A1C6] [C756CB48]
  38. 15 100.0 [7477BF00] [50310E19] CRC32
  39. 16 100.0 [8F1B2DEB] [BA24DAB3] CRC32
RAW Paste Data