Guest User

[Commie] Yowamushi Pedal Glory Line - 03 [A063E14D].mkv

a guest
Jan 29th, 2018
21
Never
Not a member of Pastebin yet? Sign Up, it unlocks many cool features!
  1. General
  2. Unique ID : 183075593144633332015491459320910690583 (0x89BB13A21C76AC7740BA6A9B63CBB917)
  3. Format : Matroska
  4. Format version : Version 4 / Version 2
  5. File size : 603 MiB
  6. Duration : 23 min 50 s
  7. Overall bit rate : 3 537 kb/s
  8. Encoded date : UTC 2018-01-23 03:11:32
  9. Writing application : mkvmerge v20.0.0 ('I Am The Sun') 64-bit
  10. Writing library : libebml v1.3.5 + libmatroska v1.4.8
  11. Attachments : FOTCometStdStripped-Bold_0.otf / FRABK.TTF / FRADM.TTF / LT_C.ttf / LTFinnegan_MediumItalic_0.ttf / Neuton-Regular.ttf / D3Streetism_0.TTF / emmasophia.ttf
  12.  
  13. Video
  14. ID : 1
  15. Format : AVC
  16. Format/Info : Advanced Video Codec
  17. Format profile : High 10@L5
  18. Format settings, CABAC : Yes
  19. Format settings, ReFrames : 16 frames
  20. Codec ID : V_MPEG4/ISO/AVC
  21. Duration : 23 min 49 s
  22. Bit rate : 3 404 kb/s
  23. Width : 1 280 pixels
  24. Height : 720 pixels
  25. Display aspect ratio : 16:9
  26. Frame rate mode : Constant
  27. Frame rate : 23.976 (24000/1001) FPS
  28. Color space : YUV
  29. Chroma subsampling : 4:2:0
  30. Bit depth : 10 bits
  31. Scan type : Progressive
  32. Bits/(Pixel*Frame) : 0.154
  33. Stream size : 580 MiB (96%)
  34. Writing library : x264 core 155 r2867+74 66b5600 t_mod_Custom_2 [10-bit@all X86_64]
  35. Encoding settings : cabac=1 / ref=16 / deblock=1:0:0 / analyse=0x3:0x133 / me=umh / subme=10 / psy=1 / fade_compensate=0.70 / psy_rd=0.60:0.15 / mixed_ref=1 / me_range=24 / chroma_me=1 / trellis=2 / 8x8dct=1 / cqm=0 / deadzone=21,11 / fast_pskip=1 / chroma_qp_offset=-3 / threads=12 / lookahead_threads=3 / sliced_threads=0 / nr=0 / decimate=1 / interlaced=0 / bluray_compat=0 / constrained_intra=0 / fgo=0 / bframes=10 / b_pyramid=2 / b_adapt=2 / b_bias=0 / direct=3 / weightb=1 / open_gop=0 / weightp=2 / keyint=250 / keyint_min=23 / scenecut=40 / intra_refresh=0 / rc_lookahead=60 / rc=crf / mbtree=1 / crf=18.0000 / qcomp=0.70 / qpmin=0:0:0 / qpmax=81:81:81 / qpstep=4 / ip_ratio=1.40 / aq=3:0.80 / aq-sensitivity=10.00 / aq-factor=1.00:1.00:1.00 / aq2=0 / aq3=0
  36. Language : English
  37. Default : Yes
  38. Forced : No
  39.  
  40. Audio
  41. ID : 2
  42. Format : AAC
  43. Format/Info : Advanced Audio Codec
  44. Format profile : LC
  45. Codec ID : A_AAC
  46. Duration : 23 min 50 s
  47. Bit rate : 128 kb/s
  48. Channel(s) : 2 channels
  49. Channel positions : Front: L R
  50. Sampling rate : 44.1 kHz
  51. Frame rate : 43.066 FPS (1024 spf)
  52. Compression mode : Lossy
  53. Stream size : 21.8 MiB (4%)
  54. Language : Japanese
  55. Default : Yes
  56. Forced : No
  57.  
  58. Text
  59. ID : 3
  60. Format : ASS
  61. Codec ID : S_TEXT/ASS
  62. Codec ID/Info : Advanced Sub Station Alpha
  63. Duration : 23 min 44 s
  64. Bit rate : 226 b/s
  65. Count of elements : 513
  66. Compression mode : Lossless
  67. Stream size : 39.5 KiB (0%)
  68. Language : English
  69. Default : Yes
  70. Forced : No
  71.  
  72. Menu
  73. 00:00:00.033 : en:Intro
  74. 00:00:54.070 : en:OP
  75. 00:02:24.040 : en:Episode
  76. 00:21:37.440 : en:ED
  77. 00:23:06.990 : en:Outro
  78. 00:23:44.940 : en:Endcard
RAW Paste Data