Guest User

Untitled

a guest
May 18th, 2020
25
Never
Not a member of Pastebin yet? Sign Up, it unlocks many cool features!
  1. General
  2. Unique ID : 333195687766141359533093148384037472852 (0xFAAB27BDDEF828BD5F314FAC88888A54)
  3. Complete name : NEVERMIND_2018_WEB-DL_1080p-BLUEBIRD.mkv
  4. Format : Matroska
  5. Format version : Version 4 / Version 2
  6. File size : 4.32 GiB
  7. Duration : 1 h 55 min
  8. Overall bit rate : 5 367 kb/s
  9. Encoded date : UTC 2020-05-17 18:17:24
  10. Writing application : mkvmerge v43.0.0 ('The Quartermaster') 64-bit
  11. Writing library : libebml v1.3.10 + libmatroska v1.5.2
  12. Cover : Yes
  13. Attachments : cover.jpg
  14.  
  15. Video
  16. ID : 1
  17. Format : AVC
  18. Format/Info : Advanced Video Codec
  19. Format profile : High@L4
  20. Format settings, CABAC : Yes
  21. Format settings, RefFrames : 5 frames
  22. Codec ID : V_MPEG4/ISO/AVC
  23. Duration : 1 h 55 min
  24. Bit rate : 4 597 kb/s
  25. Width : 1 920 pixels
  26. Height : 804 pixels
  27. Display aspect ratio : 2.40:1
  28. Frame rate mode : Constant
  29. Frame rate : 25.000 FPS
  30. Color space : YUV
  31. Chroma subsampling : 4:2:0
  32. Bit depth : 8 bits
  33. Scan type : Progressive
  34. Bits/(Pixel*Frame) : 0.119
  35. Stream size : 3.70 GiB (86%)
  36. Language : English
  37. Default : Yes
  38. Forced : No
  39. Color range : Limited
  40. Color primaries : BT.709
  41. Transfer characteristics : BT.709
  42. Matrix coefficients : BT.709
  43.  
  44. Audio #1
  45. ID : 2
  46. Format : AC-3
  47. Format/Info : Audio Coding 3
  48. Format settings, Endianness : Big
  49. Codec ID : A_AC3
  50. Duration : 1 h 55 min
  51. Bit rate mode : Constant
  52. Bit rate : 384 kb/s
  53. Channel(s) : 6 channels
  54. Channel positions : Front: L C R, Side: L R, LFE
  55. Sampling rate : 48.0 kHz
  56. Frame rate : 31.250 FPS (1536 SPF)
  57. Bit depth : 16 bits
  58. Compression mode : Lossy
  59. Stream size : 316 MiB (7%)
  60. Title : [MVO] DD 5.1 @ 384 kbps (iTunes)
  61. Language : Russian
  62. Service kind : Complete Main
  63. Default : Yes
  64. Forced : No
  65.  
  66. Audio #2
  67. ID : 3
  68. Format : AC-3
  69. Format/Info : Audio Coding 3
  70. Format settings, Endianness : Big
  71. Codec ID : A_AC3
  72. Duration : 1 h 55 min
  73. Bit rate mode : Constant
  74. Bit rate : 384 kb/s
  75. Channel(s) : 6 channels
  76. Channel positions : Front: L C R, Side: L R, LFE
  77. Sampling rate : 48.0 kHz
  78. Frame rate : 31.250 FPS (1536 SPF)
  79. Bit depth : 16 bits
  80. Compression mode : Lossy
  81. Stream size : 316 MiB (7%)
  82. Title : [ORIGINAL] DD 5.1 @ 384 kbps (iTunes)
  83. Language : Italian
  84. Service kind : Complete Main
  85. Default : No
  86. Forced : No
  87.  
  88. Text
  89. ID : 4
  90. Format : UTF-8
  91. Codec ID : S_TEXT/UTF8
  92. Codec ID/Info : UTF-8 Plain Text
  93. Duration : 1 h 47 min
  94. Bit rate : 88 b/s
  95. Count of elements : 1204
  96. Stream size : 69.6 KiB (0%)
  97. Title : Full-length
  98. Language : Russian
  99. Default : No
  100. Forced : No
  101.  
  102. Menu
  103. 00:00:00.000 : en:Глава 1
  104. 00:08:39.640 : en:Глава 2
  105. 00:16:51.760 : en:Глава 3
  106. 00:21:53.520 : en:Глава 4
  107. 00:26:51.840 : en:Глава 5
  108. 00:34:01.000 : en:Глава 6
  109. 00:40:15.280 : en:Глава 7
  110. 00:48:13.520 : en:Глава 8
  111. 00:55:14.120 : en:Глава 9
  112. 01:02:18.480 : en:Глава 10
  113. 01:08:36.120 : en:Глава 11
  114. 01:15:26.640 : en:Глава 12
  115. 01:21:35.960 : en:Глава 13
  116. 01:26:59.720 : en:Глава 14
  117. 01:33:16.920 : en:Глава 15
  118. 01:38:48.840 : en:Глава 16
  119. 01:45:26.960 : en:Глава 17
RAW Paste Data