SHARE
TWEET

Untitled

a guest Jun 6th, 2019 5 Never
Not a member of Pastebin yet? Sign Up, it unlocks many cool features!
  1. General
  2. Unique ID                      : 72750043843481207590610764484399485034 (0x36BB26170F4E67B48EF9314B0AE6506A)
  3. Complete name                  : C:\Users\MYNAME\Desktop\MANDAR PRO GOOGLE DRIVE\XXXXXXX\MOVIE - UHD-4K-2160p-Blu-ray-Lossless.mkv
  4. Format                         : Matroska
  5. Format version                 : Version 4
  6. File size                      : 59.0 GiB
  7. Duration                       : 1 h 49 min
  8. Overall bit rate mode          : Variable
  9. Overall bit rate               : 77.5 Mb/s
  10. Movie name                     : Batman Returns
  11. Encoded date                   : UTC 2019-06-06 13:29:41
  12. Writing application            : mkvmerge v34.0.0 ('Sight and Seen') 64-bit
  13. Writing library                : libebml v1.3.7 + libmatroska v1.5.0
  14.  
  15. Video
  16. ID                             : 1
  17. Format                         : HEVC
  18. Format/Info                    : High Efficiency Video Coding
  19. Format profile                 : Main 10@L5.1@High
  20. HDR format                     : SMPTE ST 2086, HDR10 compatible
  21. Codec ID                       : V_MPEGH/ISO/HEVC
  22. Duration                       : 1 h 49 min
  23. Bit rate                       : 71.7 Mb/s
  24. Width                          : 3 840 pixels
  25. Height                         : 2 160 pixels
  26. Display aspect ratio           : 16:9
  27. Frame rate mode                : Constant
  28. Frame rate                     : 23.976 (24000/1001) FPS
  29. Color space                    : YUV
  30. Chroma subsampling             : 4:2:0 (Type 2)
  31. Bit depth                      : 10 bits
  32. Bits/(Pixel*Frame)             : 0.361
  33. Stream size                    : 54.6 GiB (93%)
  34. Writing library                : ATEME Titan File 3.9.0 (4.9.0.0)        
  35. Language                       : English
  36. Default                        : Yes
  37. Forced                         : No
  38. Color range                    : Limited
  39. Color primaries                : BT.2020
  40. Transfer characteristics       : PQ
  41. Matrix coefficients            : BT.2020 non-constant
  42. Mastering display color primar : Display P3
  43. Mastering display luminance    : min: 0.0050 cd/m2, max: 4000 cd/m2
  44. Maximum Content Light Level    : 1993 cd/m2
  45. Maximum Frame-Average Light Le : 311 cd/m2
  46.  
  47. Audio #1
  48. ID                             : 2
  49. Format                         : MLP FBA 16-ch
  50. Format/Info                    : Meridian Lossless Packing FBA with 16-channel presentation
  51. Commercial name                : Dolby TrueHD with Dolby Atmos
  52. Codec ID                       : A_TRUEHD
  53. Duration                       : 1 h 49 min
  54. Bit rate mode                  : Variable
  55. Bit rate                       : 4 051 kb/s
  56. Maximum bit rate               : 7 407 kb/s
  57. Channel(s)                     : 8 channels
  58. Channel layout                 : L R C LFE Ls Rs Lb Rb
  59. Sampling rate                  : 48.0 kHz
  60. Frame rate                     : 1 200.000 FPS (40 SPF)
  61. Compression mode               : Lossless
  62. Stream size                    : 3.09 GiB (5%)
  63. Title                          : Dolby Atmos
  64. Language                       : English
  65. Default                        : Yes
  66. Forced                         : No
  67. Number of dynamic objects      : 15
  68. Bed channel count              : 1 channel
  69. Bed channel configuration      : LFE
  70.  
  71. Audio #2
  72. ID                             : 3
  73. Format                         : AC-3
  74. Format/Info                    : Audio Coding 3
  75. Commercial name                : Dolby Digital
  76. Codec ID                       : A_AC3
  77. Duration                       : 1 h 49 min
  78. Bit rate mode                  : Constant
  79. Bit rate                       : 640 kb/s
  80. Channel(s)                     : 6 channels
  81. Channel layout                 : L R C LFE Ls Rs
  82. Sampling rate                  : 48.0 kHz
  83. Frame rate                     : 31.250 FPS (1536 SPF)
  84. Bit depth                      : 16 bits
  85. Compression mode               : Lossy
  86. Stream size                    : 499 MiB (1%)
  87. Title                          : DD 5.1
  88. Language                       : English
  89. Service kind                   : Complete Main
  90. Default                        : No
  91. Forced                         : No
  92.  
  93. Audio #3
  94. ID                             : 4
  95. Format                         : AC-3
  96. Format/Info                    : Audio Coding 3
  97. Commercial name                : Dolby Digital
  98. Codec ID                       : A_AC3
  99. Duration                       : 1 h 49 min
  100. Bit rate mode                  : Constant
  101. Bit rate                       : 448 kb/s
  102. Channel(s)                     : 6 channels
  103. Channel layout                 : L R C LFE Ls Rs
  104. Sampling rate                  : 48.0 kHz
  105. Frame rate                     : 31.250 FPS (1536 SPF)
  106. Bit depth                      : 16 bits
  107. Compression mode               : Lossy
  108. Stream size                    : 349 MiB (1%)
  109. Title                          : DD 5.1
  110. Language                       : English
  111. Service kind                   : Complete Main
  112. Default                        : No
  113. Forced                         : No
  114.  
  115. Audio #4
  116. ID                             : 5
  117. Format                         : MPEG Audio
  118. Format version                 : Version 1
  119. Format profile                 : Layer 3
  120. Codec ID                       : A_MPEG/L3
  121. Codec ID/Hint                  : MP3
  122. Duration                       : 1 h 49 min
  123. Bit rate mode                  : Constant
  124. Bit rate                       : 128 kb/s
  125. Channel(s)                     : 2 channels
  126. Sampling rate                  : 44.1 kHz
  127. Frame rate                     : 38.281 FPS (1152 SPF)
  128. Compression mode               : Lossy
  129. Stream size                    : 99.8 MiB (0%)
  130. Title                          : Dublagem clássica
  131. Language                       : Portuguese
  132. Default                        : No
  133. Forced                         : No
  134.  
  135. Audio #5
  136. ID                             : 6
  137. Format                         : AC-3
  138. Format/Info                    : Audio Coding 3
  139. Commercial name                : Dolby Digital
  140. Codec ID                       : A_AC3
  141. Duration                       : 1 h 49 min
  142. Bit rate mode                  : Constant
  143. Bit rate                       : 192 kb/s
  144. Channel(s)                     : 1 channel
  145. Channel layout                 : C
  146. Sampling rate                  : 48.0 kHz
  147. Frame rate                     : 31.250 FPS (1536 SPF)
  148. Bit depth                      : 16 bits
  149. Compression mode               : Lossy
  150. Stream size                    : 150 MiB (0%)
  151. Title                          : DD 1.0
  152. Language                       : Portuguese
  153. Service kind                   : Complete Main
  154. Default                        : No
  155. Forced                         : No
  156.  
  157. Audio #6
  158. ID                             : 7
  159. Format                         : AC-3
  160. Format/Info                    : Audio Coding 3
  161. Commercial name                : Dolby Digital
  162. Codec ID                       : A_AC3
  163. Duration                       : 1 h 49 min
  164. Bit rate mode                  : Constant
  165. Bit rate                       : 192 kb/s
  166. Channel(s)                     : 2 channels
  167. Channel layout                 : L R
  168. Sampling rate                  : 48.0 kHz
  169. Frame rate                     : 31.250 FPS (1536 SPF)
  170. Bit depth                      : 16 bits
  171. Compression mode               : Lossy
  172. Stream size                    : 150 MiB (0%)
  173. Title                          : Comentários
  174. Language                       : English
  175. Service kind                   : Complete Main
  176. Default                        : No
  177. Forced                         : No
  178.  
  179. Text #1
  180. ID                             : 8
  181. Format                         : PGS
  182. Muxing mode                    : zlib
  183. Codec ID                       : S_HDMV/PGS
  184. Codec ID/Info                  : Picture based subtitle format used on BDs/HD-DVDs
  185. Duration                       : 1 h 46 min
  186. Bit rate                       : 24.0 kb/s
  187. Count of elements              : 1894
  188. Stream size                    : 18.2 MiB (0%)
  189. Language                       : English
  190. Default                        : Yes
  191. Forced                         : No
  192.  
  193. Text #2
  194. ID                             : 9
  195. Format                         : PGS
  196. Muxing mode                    : zlib
  197. Codec ID                       : S_HDMV/PGS
  198. Codec ID/Info                  : Picture based subtitle format used on BDs/HD-DVDs
  199. Duration                       : 1 h 48 min
  200. Bit rate                       : 23.9 kb/s
  201. Count of elements              : 2124
  202. Stream size                    : 18.5 MiB (0%)
  203. Title                          : CC
  204. Language                       : English
  205. Default                        : No
  206. Forced                         : No
  207.  
  208. Text #3
  209. ID                             : 10
  210. Format                         : PGS
  211. Muxing mode                    : zlib
  212. Codec ID                       : S_HDMV/PGS
  213. Codec ID/Info                  : Picture based subtitle format used on BDs/HD-DVDs
  214. Duration                       : 1 h 46 min
  215. Bit rate                       : 22.4 kb/s
  216. Count of elements              : 1952
  217. Stream size                    : 17.0 MiB (0%)
  218. Language                       : Portuguese
  219. Default                        : No
  220. Forced                         : No
  221.  
  222. Menu
  223. 00:00:00.000                   : en:Chapter 01
  224. 00:02:22.684                   : en:Chapter 02
  225. 00:05:30.371                   : en:Chapter 03
  226. 00:07:09.846                   : en:Chapter 04
  227. 00:09:22.311                   : en:Chapter 05
  228. 00:12:47.767                   : en:Chapter 06
  229. 00:17:12.865                   : en:Chapter 07
  230. 00:23:11.264                   : en:Chapter 08
  231. 00:25:18.558                   : en:Chapter 09
  232. 00:28:30.067                   : en:Chapter 10
  233. 00:33:50.512                   : en:Chapter 11
  234. 00:40:26.491                   : en:Chapter 12
  235. 00:43:03.773                   : en:Chapter 13
  236. 00:44:12.008                   : en:Chapter 14
  237. 00:48:31.059                   : en:Chapter 15
  238. 00:54:08.104                   : en:Chapter 16
  239. 00:55:47.768                   : en:Chapter 17
  240. 00:57:59.650                   : en:Chapter 18
  241. 00:59:44.046                   : en:Chapter 19
  242. 01:02:15.489                   : en:Chapter 20
  243. 01:07:47.237                   : en:Chapter 21
  244. 01:10:01.829                   : en:Chapter 22
  245. 01:13:08.808                   : en:Chapter 23
  246. 01:18:00.099                   : en:Chapter 24
  247. 01:20:42.303                   : en:Chapter 25
  248. 01:22:29.441                   : en:Chapter 26
  249. 01:26:43.569                   : en:Chapter 27
  250. 01:31:44.787                   : en:Chapter 28
  251. 01:33:47.159                   : en:Chapter 29
  252. 01:38:13.676                   : en:Chapter 30
  253. 01:40:38.529                   : en:Chapter 31
  254. 01:42:43.487                   : en:Chapter 32
  255. 01:44:08.405                   : en:Chapter 33
  256. 01:48:42.637                   : en:Chapter 34
RAW Paste Data
We use cookies for various purposes including analytics. By continuing to use Pastebin, you agree to our use of cookies as described in the Cookies Policy. OK, I Understand
Not a member of Pastebin yet?
Sign Up, it unlocks many cool features!
 
Top