SHARE
TWEET

Untitled

a guest Jan 23rd, 2020 89 Never
Not a member of Pastebin yet? Sign Up, it unlocks many cool features!
  1. General
  2. Unique ID                                : 95413405596734263261664122935703629839 (0x47C7F41825ED207ECDD9A484F321F00F)
  3. Complete name                            : Star.Trek.Picard.S01E01.ITA-ENG.1080p.WEB-DL.AMZN.DD5.1.H.264-AX.mkv
  4. Format                                   : Matroska
  5. Format version                           : Version 4
  6. File size                                : 3.09 GiB
  7. Duration                                 : 44 min 18 s
  8. Overall bit rate                         : 9 993 kb/s
  9. Movie name                               : (1x01) Ricordi
  10. Encoded date                             : UTC 2020-01-23 23:44:51
  11. Writing application                      : mkvmerge v42.0.0 ('Overtime') 64-bit
  12. Writing library                          : libebml v1.3.10 + libmatroska v1.5.2
  13.  
  14. Video
  15. ID                                       : 1
  16. Format                                   : AVC
  17. Format/Info                              : Advanced Video Codec
  18. Format profile                           : High@L4
  19. Format settings                          : CABAC / 4 Ref Frames
  20. Format settings, CABAC                   : Yes
  21. Format settings, Reference frames        : 4 frames
  22. Codec ID                                 : V_MPEG4/ISO/AVC
  23. Duration                                 : 44 min 18 s
  24. Bit rate mode                            : Constant
  25. Bit rate                                 : 8 711 kb/s
  26. Nominal bit rate                         : 10 000 kb/s
  27. Width                                    : 1 920 pixels
  28. Height                                   : 1 080 pixels
  29. Display aspect ratio                     : 16:9
  30. Frame rate mode                          : Constant
  31. Frame rate                               : 23.976 (24000/1001) FPS
  32. Color space                              : YUV
  33. Chroma subsampling                       : 4:2:0
  34. Bit depth                                : 8 bits
  35. Scan type                                : Progressive
  36. Bits/(Pixel*Frame)                       : 0.175
  37. Stream size                              : 2.70 GiB (87%)
  38. Title                                    : AMZN WEB-DL 1080p
  39. Language                                 : English
  40. Default                                  : Yes
  41. Forced                                   : No
  42. Color range                              : Limited
  43. Color primaries                          : BT.709
  44. Transfer characteristics                 : BT.709
  45. Matrix coefficients                      : BT.709
  46.  
  47. Audio #1
  48. ID                                       : 2
  49. Format                                   : E-AC-3
  50. Format/Info                              : Enhanced AC-3
  51. Commercial name                          : Dolby Digital Plus
  52. Codec ID                                 : A_EAC3
  53. Duration                                 : 44 min 18 s
  54. Bit rate mode                            : Constant
  55. Bit rate                                 : 640 kb/s
  56. Channel(s)                               : 6 channels
  57. Channel layout                           : L R C LFE Ls Rs
  58. Sampling rate                            : 48.0 kHz
  59. Frame rate                               : 31.250 FPS (1536 SPF)
  60. Compression mode                         : Lossy
  61. Stream size                              : 203 MiB (6%)
  62. Title                                    : DD+ 5.1 @ 640 kb/s
  63. Language                                 : Italian
  64. Service kind                             : Complete Main
  65. Default                                  : Yes
  66. Forced                                   : No
  67.  
  68. Audio #2
  69. ID                                       : 3
  70. Format                                   : E-AC-3
  71. Format/Info                              : Enhanced AC-3
  72. Commercial name                          : Dolby Digital Plus
  73. Codec ID                                 : A_EAC3
  74. Duration                                 : 44 min 18 s
  75. Bit rate mode                            : Constant
  76. Bit rate                                 : 640 kb/s
  77. Channel(s)                               : 6 channels
  78. Channel layout                           : L R C LFE Ls Rs
  79. Sampling rate                            : 48.0 kHz
  80. Frame rate                               : 31.250 FPS (1536 SPF)
  81. Compression mode                         : Lossy
  82. Stream size                              : 203 MiB (6%)
  83. Title                                    : DD+ 5.1 @ 640 kb/s
  84. Language                                 : English
  85. Service kind                             : Complete Main
  86. Default                                  : No
  87. Forced                                   : No
  88.  
  89. Text #1
  90. ID                                       : 4
  91. Format                                   : UTF-8
  92. Codec ID                                 : S_TEXT/UTF8
  93. Codec ID/Info                            : UTF-8 Plain Text
  94. Duration                                 : 31 min 26 s
  95. Bit rate                                 : 1 b/s
  96. Count of elements                        : 13
  97. Stream size                              : 417 Bytes (0%)
  98. Title                                    : Forced [IT]
  99. Language                                 : Italian
  100. Default                                  : Yes
  101. Forced                                   : Yes
  102.  
  103. Text #2
  104. ID                                       : 5
  105. Format                                   : UTF-8
  106. Codec ID                                 : S_TEXT/UTF8
  107. Codec ID/Info                            : UTF-8 Plain Text
  108. Duration                                 : 43 min 23 s
  109. Bit rate                                 : 50 b/s
  110. Count of elements                        : 569
  111. Stream size                              : 16.1 KiB (0%)
  112. Title                                    : Full [IT]
  113. Language                                 : Italian
  114. Default                                  : No
  115. Forced                                   : No
  116.  
  117. Text #3
  118. ID                                       : 6
  119. Format                                   : UTF-8
  120. Codec ID                                 : S_TEXT/UTF8
  121. Codec ID/Info                            : UTF-8 Plain Text
  122. Duration                                 : 3 min 58 s
  123. Bit rate                                 : 5 b/s
  124. Count of elements                        : 5
  125. Stream size                              : 156 Bytes (0%)
  126. Title                                    : Forced [EN]
  127. Language                                 : English
  128. Default                                  : No
  129. Forced                                   : No
  130.  
  131. Text #4
  132. ID                                       : 7
  133. Format                                   : UTF-8
  134. Codec ID                                 : S_TEXT/UTF8
  135. Codec ID/Info                            : UTF-8 Plain Text
  136. Duration                                 : 41 min 27 s
  137. Bit rate                                 : 54 b/s
  138. Count of elements                        : 546
  139. Stream size                              : 16.6 KiB (0%)
  140. Title                                    : Full [EN]
  141. Language                                 : English
  142. Default                                  : No
  143. Forced                                   : No
  144.  
  145. Menu
  146. 00:00:00.000                             : en:Amazon Original
  147. 00:00:06.000                             : en:Keep the game from ending
  148. 00:04:01.000                             : en:Activating a new weapon
  149. 00:06:55.000                             : en:Opening Credits
  150. 00:08:33.000                             : en:An important interview
  151. 00:16:38.000                             : en:Dahj finds Picard
  152. 00:22:06.000                             : en:A clue hidden in a painting
  153. 00:26:33.000                             : en:Focus and find help
  154. 00:28:08.000                             : en:The truth about Dahj
  155. 00:33:49.000                             : en:A visit to Okinawa Research Facility
  156. 00:40:38.000                             : en:Another sad story
  157. 00:43:17.000                             : en:End Credits
RAW Paste Data
We use cookies for various purposes including analytics. By continuing to use Pastebin, you agree to our use of cookies as described in the Cookies Policy. OK, I Understand
Top