daily pastebin goal
13%
SHARE
TWEET

Untitled

Secasa Sep 13th, 2017 2 Never
Not a member of Pastebin yet? Sign Up, it unlocks many cool features!
  1. Format                                   : Matroska
  2. Format version                           : Version 2
  3. File size                                : 12.1 GiB
  4. Duration                                 : 1 h 38 min
  5. Overall bit rate                         : 17.6 Mb/s
  6. Encoded date                             : UTC 2017-09-13 04:25:57
  7. Writing application                      : mkvmerge v5.3.0 ('I could have danced') built on Feb  9 2012 10:38:07
  8. Writing library                          : libebml v1.2.3 + libmatroska v1.3.0
  9.  
  10. Video
  11. ID                                       : 1
  12. Format                                   : AVC
  13. Format/Info                              : Advanced Video Codec
  14. Format profile                           : High@L4.1
  15. Format settings, CABAC                   : Yes
  16. Format settings, RefFrames               : 5 frames
  17. Codec ID                                 : V_MPEG4/ISO/AVC
  18. Duration                                 : 1 h 38 min
  19. Bit rate                                 : 15.2 Mb/s
  20. Width                                    : 1 920 pixels
  21. Height                                   : 800 pixels
  22. Display aspect ratio                     : 2.40:1
  23. Frame rate mode                          : Constant
  24. Frame rate                               : 23.976 (24000/1001) FPS
  25. Color space                              : YUV
  26. Chroma subsampling                       : 4:2:0
  27. Bit depth                                : 8 bits
  28. Scan type                                : Progressive
  29. Bits/(Pixel*Frame)                       : 0.414
  30. Stream size                              : 10.5 GiB (87%)
  31. Writing library                          : x264 core 152 r2851 ba24899
  32. Encoding settings                        : cabac=1 / ref=5 / deblock=1:-3:-3 / analyse=0x3:0x113 / me=tesa / subme=11 / psy=1 / psy_rd=1.10:0.00 / mixed_ref=1 / me_range=32 / chroma_me=1 / trellis=2 / 8x8dct=1 / cqm=0 / deadzone=21,11 / fast_pskip=0 / chroma_qp_offset=-2 / threads=25 / lookahead_threads=6 / sliced_threads=0 / nr=0 / decimate=1 / interlaced=0 / bluray_compat=0 / constrained_intra=0 / bframes=10 / b_pyramid=2 / b_adapt=2 / b_bias=0 / direct=1 / weightb=1 / open_gop=0 / weightp=2 / keyint=240 / keyint_min=23 / scenecut=40 / intra_refresh=0 / rc_lookahead=100 / rc=crf / mbtree=1 / crf=16.5 / qcomp=0.75 / qpmin=0 / qpmax=69 / qpstep=4 / vbv_maxrate=62500 / vbv_bufsize=78125 / crf_max=0.0 / nal_hrd=none / filler=0 / ip_ratio=1.30 / aq=1:1.10
  33. Language                                 : Spanish
  34. Default                                  : Yes
  35. Forced                                   : No
  36.  
  37. Audio #1
  38. ID                                       : 2
  39. Format                                   : AC-3
  40. Format/Info                              : Audio Coding 3
  41. Format settings, Endianness              : Big
  42. Codec ID                                 : A_AC3
  43. Duration                                 : 1 h 38 min
  44. Bit rate mode                            : Constant
  45. Bit rate                                 : 448 kb/s
  46. Channel(s)                               : 6 channels
  47. Channel positions                        : Front: L C R, Side: L R, LFE
  48. Sampling rate                            : 48.0 kHz
  49. Frame rate                               : 31.250 FPS (1536 SPF)
  50. Bit depth                                : 16 bits
  51. Compression mode                         : Lossy
  52. Stream size                              : 317 MiB (3%)
  53. Language                                 : Spanish
  54. Service kind                             : Complete Main
  55. Default                                  : Yes
  56. Forced                                   : No
  57.  
  58. Audio #2
  59. ID                                       : 3
  60. Format                                   : DTS
  61. Format/Info                              : Digital Theater Systems
  62. Mode                                     : 16
  63. Format settings, Endianness              : Big
  64. Codec ID                                 : A_DTS
  65. Duration                                 : 1 h 38 min
  66. Bit rate mode                            : Constant
  67. Bit rate                                 : 1 509 kb/s
  68. Channel(s)                               : 6 channels
  69. Channel positions                        : Front: L C R, Side: L R, LFE
  70. Sampling rate                            : 48.0 kHz
  71. Frame rate                               : 93.750 FPS (512 SPF)
  72. Bit depth                                : 24 bits
  73. Compression mode                         : Lossy
  74. Stream size                              : 1.04 GiB (9%)
  75. Language                                 : English
  76. Default                                  : No
  77. Forced                                   : No
  78.  
  79. Text #1
  80. ID                                       : 4
  81. Format                                   : UTF-8
  82. Codec ID                                 : S_TEXT/UTF8
  83. Codec ID/Info                            : UTF-8 Plain Text
  84. Language                                 : Spanish
  85. Default                                  : Yes
  86. Forced                                   : No
  87.  
  88. Text #2
  89. ID                                       : 5
  90. Format                                   : UTF-8
  91. Codec ID                                 : S_TEXT/UTF8
  92. Codec ID/Info                            : UTF-8 Plain Text
  93. Language                                 : Spanish
  94. Default                                  : No
  95. Forced                                   : No
  96.  
  97. Text #3
  98. ID                                       : 6
  99. Format                                   : UTF-8
  100. Codec ID                                 : S_TEXT/UTF8
  101. Codec ID/Info                            : UTF-8 Plain Text
  102. Language                                 : English
  103. Default                                  : No
  104. Forced                                   : No
  105.  
  106. Menu
  107. 00:00:00.000                             : en:00:00:00.000
  108. 00:05:23.447                             : en:00:05:23.447
  109. 00:10:13.321                             : en:00:10:13.321
  110. 00:14:14.519                             : en:00:14:14.519
  111. 00:22:23.674                             : en:00:22:23.674
  112. 00:27:21.931                             : en:00:27:21.931
  113. 00:33:41.352                             : en:00:33:41.352
  114. 00:37:41.384                             : en:00:37:41.384
  115. 00:41:21.144                             : en:00:41:21.144
  116. 00:46:37.795                             : en:00:46:37.795
  117. 00:51:22.871                             : en:00:51:22.871
  118. 00:56:48.237                             : en:00:56:48.237
  119. 00:59:33.820                             : en:00:59:33.820
  120. 01:04:07.635                             : en:01:04:07.635
  121. 01:08:31.564                             : en:01:08:31.564
  122. 01:13:09.926                             : en:01:13:09.926
  123. 01:17:50.289                             : en:01:17:50.289
  124. 01:21:09.530                             : en:01:21:09.530
  125. 01:25:44.180                             : en:01:25:44.180
  126. 01:33:19.594                             : en:01:33:19.594
RAW Paste Data
We use cookies for various purposes including analytics. By continuing to use Pastebin, you agree to our use of cookies as described in the Cookies Policy. OK, I Understand
 
Top