SHARE
TWEET

Batch Encode Fail VP8

a guest Aug 31st, 2016 13 Never
Not a member of Pastebin yet? Sign Up, it unlocks many cool features!
  1.  
  2. C:\Users\Casa\Desktop\test\Fallout4>"C:\media-autobuild_suite-master\local64\bin-video\ffmpeg.exe" -y -i C:\Users\Casa\Desktop\test\Fallout4\Fallout4.mkv -c:v libvpx -pass 1 -b:v .5M -threads 7 -speed 4 -colorspace "bt709" -auto-alt-ref 1 -lag-in-frames 25 -an -f null NUL
  3. ffmpeg version N-81490-g2bc69cb-ga37e6dd+1 Copyright (c) 2000-2016 the FFmpeg developers
  4.   built with gcc 6.1.0 (Rev1, Built by MSYS2 project)
  5.   configuration:  --enable-avisynth --enable-libmp3lame --enable-libopus --enable-libvorbis --enable-libvpx --enable-libx264 --enable-libx265 --disable-w32threads --enable-decklink --enable-fontconfig --enable-frei0r --enable-libass --enable-libbluray --enable-libbs2b --enable-libcaca --enable-libfreetype --enable-libfribidi --enable-libgme --enable-libgsm --enable-libilbc --enable-libmfx --enable-libmodplug --enable-libopencore-amrnb --enable-libopencore-amrwb --enable-libopenjpeg --enable-librtmp --enable-libschroedinger --enable-libsoxr --enable-libspeex --enable-libtheora --enable-libtwolame --enable-libvidstab --enable-libvo-amrwbenc --enable-libwavpack --enable-libwebp --enable-libxavs --enable-libxvid --enable-libzimg --enable-openssl --enable-libsnappy --enable-gpl --enable-nvenc --enable-opencl --enable-opengl --enable-libcdio --enable-libfaac --enable-libfdk-aac --enable-libkvazaar --enable-librubberband --enable-libssh --enable-libtesseract --enable-libzvbi --enable-chromaprint --enable-libebur128 --enable-libopenh264 --enable-libopenmpt --enable-version3 --enable-nonfree --enable-filter=frei0r --disable-debug
  6.   libavutil      55. 29.100 / 55. 29.100
  7.   libavcodec     57. 54.101 / 57. 54.101
  8.   libavformat    57. 48.101 / 57. 48.101
  9.   libavdevice    57.  0.102 / 57.  0.102
  10.   libavfilter     6. 57.100 /  6. 57.100
  11.   libswscale      4.  1.100 /  4.  1.100
  12.   libswresample   2.  1.100 /  2.  1.100
  13.   libpostproc    54.  0.100 / 54.  0.100
  14. Input #0, matroska,webm, from 'C:\Users\Casa\Desktop\test\Fallout4\Fallout4.mkv':
  15.   Metadata:
  16.     COMPATIBLE_BRANDS: qt
  17.     MAJOR_BRAND     : qt
  18.     MINOR_VERSION   : 537199360
  19.     ENCODER         : Lavf57.48.101
  20.   Duration: 00:01:00.04, start: 0.000000, bitrate: 1312107 kb/s
  21.     Stream #0:0(eng): Video: ffv1 (FFV1 / 0x31564646), bgra, 1920x1080, SAR 1:1 DAR 16:9, 60 fps, 60 tbr, 1k tbn, 1k tbc (default)
  22.     Metadata:
  23.       HANDLER_NAME    : Apple Alias Data Handler
  24.       TIMECODE        : 00:00:00:00
  25.       ENCODER         : Lavc57.54.101 ffv1
  26.       DURATION        : 00:01:00.037000000
  27.     Stream #0:1(eng): Audio: vorbis, 48000 Hz, stereo, fltp (default)
  28.     Metadata:
  29.       HANDLER_NAME    : Apple Alias Data Handler
  30.       TIMECODE        : 00:00:00:00
  31.       ENCODER         : Lavc57.54.101 libvorbis
  32.       DURATION        : 00:01:00.036000000
  33. [libvpx @ 0000027dcf21f640] v1.6.0-353-g3a98508
  34. [null @ 0000027dcef39080] Using AVStream.codec to pass codec parameters to muxers is deprecated, use AVStream.codecpar instead.
  35. Output #0, null, to 'NUL':
  36.   Metadata:
  37.     COMPATIBLE_BRANDS: qt
  38.     MAJOR_BRAND     : qt
  39.     MINOR_VERSION   : 537199360
  40.     encoder         : Lavf57.48.101
  41.     Stream #0:0(eng): Video: vp8 (libvpx), yuva420p(bt709/unknown/unknown), 1920x1080 [SAR 1:1 DAR 16:9], q=-1--1, 500 kb/s, 60 fps, 60 tbn, 60 tbc (default)
  42.     Metadata:
  43.       HANDLER_NAME    : Apple Alias Data Handler
  44.       TIMECODE        : 00:00:00:00
  45.       DURATION        : 00:01:00.037000000
  46.       encoder         : Lavc57.54.101 libvpx
  47.     Side data:
  48.       cpb: bitrate max/min/avg: 0/0/500000 buffer size: 0 vbv_delay: -1
  49. Stream mapping:
  50.   Stream #0:0 -> #0:0 (ffv1 (native) -> vp8 (libvpx))
  51. Press [q] to stop, [?] for help
  52. frame= 3602 fps=7.4 q=0.0 Lsize=N/A time=00:00:00.00 bitrate=N/A speed=   0x
  53. video:0kB audio:0kB subtitle:0kB other streams:0kB global headers:0kB muxing overhead: unknown
  54. Output file is empty, nothing was encoded
  55.  
  56. C:\Users\Casa\Desktop\test\Fallout4>"C:\media-autobuild_suite-master\local64\bin-video\ffmpeg.exe" -y -i C:\Users\Casa\Desktop\test\Fallout4\Fallout4.mkv -c:v libvpx -pass 2 -b:v .5M -threads 7 -speed 2 -colorspace "bt709" -auto-alt-ref 1 -lag-in-frames 25 -f webm "C:\Users\Casa\Desktop\test\Fallout4\test_0.5_vp8.webm"
  57. ffmpeg version N-81490-g2bc69cb-ga37e6dd+1 Copyright (c) 2000-2016 the FFmpeg developers
  58.   built with gcc 6.1.0 (Rev1, Built by MSYS2 project)
  59.   configuration:  --enable-avisynth --enable-libmp3lame --enable-libopus --enable-libvorbis --enable-libvpx --enable-libx264 --enable-libx265 --disable-w32threads --enable-decklink --enable-fontconfig --enable-frei0r --enable-libass --enable-libbluray --enable-libbs2b --enable-libcaca --enable-libfreetype --enable-libfribidi --enable-libgme --enable-libgsm --enable-libilbc --enable-libmfx --enable-libmodplug --enable-libopencore-amrnb --enable-libopencore-amrwb --enable-libopenjpeg --enable-librtmp --enable-libschroedinger --enable-libsoxr --enable-libspeex --enable-libtheora --enable-libtwolame --enable-libvidstab --enable-libvo-amrwbenc --enable-libwavpack --enable-libwebp --enable-libxavs --enable-libxvid --enable-libzimg --enable-openssl --enable-libsnappy --enable-gpl --enable-nvenc --enable-opencl --enable-opengl --enable-libcdio --enable-libfaac --enable-libfdk-aac --enable-libkvazaar --enable-librubberband --enable-libssh --enable-libtesseract --enable-libzvbi --enable-chromaprint --enable-libebur128 --enable-libopenh264 --enable-libopenmpt --enable-version3 --enable-nonfree --enable-filter=frei0r --disable-debug
  60.   libavutil      55. 29.100 / 55. 29.100
  61.   libavcodec     57. 54.101 / 57. 54.101
  62.   libavformat    57. 48.101 / 57. 48.101
  63.   libavdevice    57.  0.102 / 57.  0.102
  64.   libavfilter     6. 57.100 /  6. 57.100
  65.   libswscale      4.  1.100 /  4.  1.100
  66.   libswresample   2.  1.100 /  2.  1.100
  67.   libpostproc    54.  0.100 / 54.  0.100
  68. Input #0, matroska,webm, from 'C:\Users\Casa\Desktop\test\Fallout4\Fallout4.mkv':
  69.   Metadata:
  70.     COMPATIBLE_BRANDS: qt
  71.     MAJOR_BRAND     : qt
  72.     MINOR_VERSION   : 537199360
  73.     ENCODER         : Lavf57.48.101
  74.   Duration: 00:01:00.04, start: 0.000000, bitrate: 1312107 kb/s
  75.     Stream #0:0(eng): Video: ffv1 (FFV1 / 0x31564646), bgra, 1920x1080, SAR 1:1 DAR 16:9, 60 fps, 60 tbr, 1k tbn, 1k tbc (default)
  76.     Metadata:
  77.       HANDLER_NAME    : Apple Alias Data Handler
  78.       TIMECODE        : 00:00:00:00
  79.       ENCODER         : Lavc57.54.101 ffv1
  80.       DURATION        : 00:01:00.037000000
  81.     Stream #0:1(eng): Audio: vorbis, 48000 Hz, stereo, fltp (default)
  82.     Metadata:
  83.       HANDLER_NAME    : Apple Alias Data Handler
  84.       TIMECODE        : 00:00:00:00
  85.       ENCODER         : Lavc57.54.101 libvorbis
  86.       DURATION        : 00:01:00.036000000
  87. [libvpx @ 00000206de0bcf20] v1.6.0-353-g3a98508
  88. [libopus @ 00000206de0bef20] No bit rate set. Defaulting to 96000 bps.
  89. [webm @ 00000206de0bb280] Using AVStream.codec to pass codec parameters to muxers is deprecated, use AVStream.codecpar instead.
  90.     Last message repeated 1 times
  91. Output #0, webm, to 'C:\Users\Casa\Desktop\test\Fallout4\test_0.5_vp8.webm':
  92.   Metadata:
  93.     COMPATIBLE_BRANDS: qt
  94.     MAJOR_BRAND     : qt
  95.     MINOR_VERSION   : 537199360
  96.     encoder         : Lavf57.48.101
  97.     Stream #0:0(eng): Video: vp8 (libvpx), yuva420p(bt709/unknown/unknown), 1920x1080 [SAR 1:1 DAR 16:9], q=-1--1, 500 kb/s, 60 fps, 1k tbn, 60 tbc (default)
  98.     Metadata:
  99.       HANDLER_NAME    : Apple Alias Data Handler
  100.       TIMECODE        : 00:00:00:00
  101.       DURATION        : 00:01:00.037000000
  102.       encoder         : Lavc57.54.101 libvpx
  103.     Side data:
  104.       cpb: bitrate max/min/avg: 0/0/500000 buffer size: 0 vbv_delay: -1
  105.     Stream #0:1(eng): Audio: opus (libopus), 48000 Hz, stereo, flt, delay 312, padding 0, 96 kb/s (default)
  106.     Metadata:
  107.       HANDLER_NAME    : Apple Alias Data Handler
  108.       TIMECODE        : 00:00:00:00
  109.       DURATION        : 00:01:00.036000000
  110.       encoder         : Lavc57.54.101 libopus
  111. Stream mapping:
  112.   Stream #0:0 -> #0:0 (ffv1 (native) -> vp8 (libvpx))
  113.   Stream #0:1 -> #0:1 (vorbis (native) -> opus (libopus))
  114. Press [q] to stop, [?] for help
  115. frame= 3602 fps=5.5 q=0.0 Lsize=   24699kB time=00:01:00.05 bitrate=3369.1kbits/s speed=0.0918x
  116. video:23039kB audio:684kB subtitle:0kB other streams:0kB global headers:0kB muxing overhead: 4.116834%
  117.  
  118. C:\Users\Casa\Desktop\test\Fallout4>"C:\media-autobuild_suite-master\local64\bin-video\ffmpeg.exe" -y -i C:\Users\Casa\Desktop\test\Fallout4\Fallout4.mkv -c:v libvpx -pass 1 -b:v 1M -threads 7 -speed 4 -colorspace "bt709" -auto-alt-ref 1 -lag-in-frames 25 -an -f null NUL
  119. ffmpeg version N-81490-g2bc69cb-ga37e6dd+1 Copyright (c) 2000-2016 the FFmpeg developers
  120.   built with gcc 6.1.0 (Rev1, Built by MSYS2 project)
  121.   configuration:  --enable-avisynth --enable-libmp3lame --enable-libopus --enable-libvorbis --enable-libvpx --enable-libx264 --enable-libx265 --disable-w32threads --enable-decklink --enable-fontconfig --enable-frei0r --enable-libass --enable-libbluray --enable-libbs2b --enable-libcaca --enable-libfreetype --enable-libfribidi --enable-libgme --enable-libgsm --enable-libilbc --enable-libmfx --enable-libmodplug --enable-libopencore-amrnb --enable-libopencore-amrwb --enable-libopenjpeg --enable-librtmp --enable-libschroedinger --enable-libsoxr --enable-libspeex --enable-libtheora --enable-libtwolame --enable-libvidstab --enable-libvo-amrwbenc --enable-libwavpack --enable-libwebp --enable-libxavs --enable-libxvid --enable-libzimg --enable-openssl --enable-libsnappy --enable-gpl --enable-nvenc --enable-opencl --enable-opengl --enable-libcdio --enable-libfaac --enable-libfdk-aac --enable-libkvazaar --enable-librubberband --enable-libssh --enable-libtesseract --enable-libzvbi --enable-chromaprint --enable-libebur128 --enable-libopenh264 --enable-libopenmpt --enable-version3 --enable-nonfree --enable-filter=frei0r --disable-debug
  122.   libavutil      55. 29.100 / 55. 29.100
  123.   libavcodec     57. 54.101 / 57. 54.101
  124.   libavformat    57. 48.101 / 57. 48.101
  125.   libavdevice    57.  0.102 / 57.  0.102
  126.   libavfilter     6. 57.100 /  6. 57.100
  127.   libswscale      4.  1.100 /  4.  1.100
  128.   libswresample   2.  1.100 /  2.  1.100
  129.   libpostproc    54.  0.100 / 54.  0.100
  130. Input #0, matroska,webm, from 'C:\Users\Casa\Desktop\test\Fallout4\Fallout4.mkv':
  131.   Metadata:
  132.     COMPATIBLE_BRANDS: qt
  133.     MAJOR_BRAND     : qt
  134.     MINOR_VERSION   : 537199360
  135.     ENCODER         : Lavf57.48.101
  136.   Duration: 00:01:00.04, start: 0.000000, bitrate: 1312107 kb/s
  137.     Stream #0:0(eng): Video: ffv1 (FFV1 / 0x31564646), bgra, 1920x1080, SAR 1:1 DAR 16:9, 60 fps, 60 tbr, 1k tbn, 1k tbc (default)
  138.     Metadata:
  139.       HANDLER_NAME    : Apple Alias Data Handler
  140.       TIMECODE        : 00:00:00:00
  141.       ENCODER         : Lavc57.54.101 ffv1
  142.       DURATION        : 00:01:00.037000000
  143.     Stream #0:1(eng): Audio: vorbis, 48000 Hz, stereo, fltp (default)
  144.     Metadata:
  145.       HANDLER_NAME    : Apple Alias Data Handler
  146.       TIMECODE        : 00:00:00:00
  147.       ENCODER         : Lavc57.54.101 libvorbis
  148.       DURATION        : 00:01:00.036000000
  149. [libvpx @ 000002462dd0f640] v1.6.0-353-g3a98508
  150. [null @ 000002462da29080] Using AVStream.codec to pass codec parameters to muxers is deprecated, use AVStream.codecpar instead.
  151. Output #0, null, to 'NUL':
  152.   Metadata:
  153.     COMPATIBLE_BRANDS: qt
  154.     MAJOR_BRAND     : qt
  155.     MINOR_VERSION   : 537199360
  156.     encoder         : Lavf57.48.101
  157.     Stream #0:0(eng): Video: vp8 (libvpx), yuva420p(bt709/unknown/unknown), 1920x1080 [SAR 1:1 DAR 16:9], q=-1--1, 1000 kb/s, 60 fps, 60 tbn, 60 tbc (default)
  158.     Metadata:
  159.       HANDLER_NAME    : Apple Alias Data Handler
  160.       TIMECODE        : 00:00:00:00
  161.       DURATION        : 00:01:00.037000000
  162.       encoder         : Lavc57.54.101 libvpx
  163.     Side data:
  164.       cpb: bitrate max/min/avg: 0/0/1000000 buffer size: 0 vbv_delay: -1
  165. Stream mapping:
  166.   Stream #0:0 -> #0:0 (ffv1 (native) -> vp8 (libvpx))
  167. Press [q] to stop, [?] for help
  168. frame= 3602 fps=7.7 q=0.0 Lsize=N/A time=00:00:00.00 bitrate=N/A speed=   0x
  169. video:0kB audio:0kB subtitle:0kB other streams:0kB global headers:0kB muxing overhead: unknown
  170. Output file is empty, nothing was encoded
  171.  
  172. C:\Users\Casa\Desktop\test\Fallout4>"C:\media-autobuild_suite-master\local64\bin-video\ffmpeg.exe" -y -i C:\Users\Casa\Desktop\test\Fallout4\Fallout4.mkv -c:v libvpx -pass 2 -b:v 1M -threads 7 -speed 2 -colorspace "bt709" -auto-alt-ref 1 -lag-in-frames 25 -f webm "C:\Users\Casa\Desktop\test\Fallout4\test_1.0_vp8.webm"
  173. ffmpeg version N-81490-g2bc69cb-ga37e6dd+1 Copyright (c) 2000-2016 the FFmpeg developers
  174.   built with gcc 6.1.0 (Rev1, Built by MSYS2 project)
  175.   configuration:  --enable-avisynth --enable-libmp3lame --enable-libopus --enable-libvorbis --enable-libvpx --enable-libx264 --enable-libx265 --disable-w32threads --enable-decklink --enable-fontconfig --enable-frei0r --enable-libass --enable-libbluray --enable-libbs2b --enable-libcaca --enable-libfreetype --enable-libfribidi --enable-libgme --enable-libgsm --enable-libilbc --enable-libmfx --enable-libmodplug --enable-libopencore-amrnb --enable-libopencore-amrwb --enable-libopenjpeg --enable-librtmp --enable-libschroedinger --enable-libsoxr --enable-libspeex --enable-libtheora --enable-libtwolame --enable-libvidstab --enable-libvo-amrwbenc --enable-libwavpack --enable-libwebp --enable-libxavs --enable-libxvid --enable-libzimg --enable-openssl --enable-libsnappy --enable-gpl --enable-nvenc --enable-opencl --enable-opengl --enable-libcdio --enable-libfaac --enable-libfdk-aac --enable-libkvazaar --enable-librubberband --enable-libssh --enable-libtesseract --enable-libzvbi --enable-chromaprint --enable-libebur128 --enable-libopenh264 --enable-libopenmpt --enable-version3 --enable-nonfree --enable-filter=frei0r --disable-debug
  176.   libavutil      55. 29.100 / 55. 29.100
  177.   libavcodec     57. 54.101 / 57. 54.101
  178.   libavformat    57. 48.101 / 57. 48.101
  179.   libavdevice    57.  0.102 / 57.  0.102
  180.   libavfilter     6. 57.100 /  6. 57.100
  181.   libswscale      4.  1.100 /  4.  1.100
  182.   libswresample   2.  1.100 /  2.  1.100
  183.   libpostproc    54.  0.100 / 54.  0.100
  184. Input #0, matroska,webm, from 'C:\Users\Casa\Desktop\test\Fallout4\Fallout4.mkv':
  185.   Metadata:
  186.     COMPATIBLE_BRANDS: qt
  187.     MAJOR_BRAND     : qt
  188.     MINOR_VERSION   : 537199360
  189.     ENCODER         : Lavf57.48.101
  190.   Duration: 00:01:00.04, start: 0.000000, bitrate: 1312107 kb/s
  191.     Stream #0:0(eng): Video: ffv1 (FFV1 / 0x31564646), bgra, 1920x1080, SAR 1:1 DAR 16:9, 60 fps, 60 tbr, 1k tbn, 1k tbc (default)
  192.     Metadata:
  193.       HANDLER_NAME    : Apple Alias Data Handler
  194.       TIMECODE        : 00:00:00:00
  195.       ENCODER         : Lavc57.54.101 ffv1
  196.       DURATION        : 00:01:00.037000000
  197.     Stream #0:1(eng): Audio: vorbis, 48000 Hz, stereo, fltp (default)
  198.     Metadata:
  199.       HANDLER_NAME    : Apple Alias Data Handler
  200.       TIMECODE        : 00:00:00:00
  201.       ENCODER         : Lavc57.54.101 libvorbis
  202.       DURATION        : 00:01:00.036000000
  203. [libvpx @ 0000011644dbcf20] v1.6.0-353-g3a98508
  204. [libopus @ 0000011644dbef20] No bit rate set. Defaulting to 96000 bps.
  205. [webm @ 0000011644dbb280] Using AVStream.codec to pass codec parameters to muxers is deprecated, use AVStream.codecpar instead.
  206.     Last message repeated 1 times
  207. Output #0, webm, to 'C:\Users\Casa\Desktop\test\Fallout4\test_1.0_vp8.webm':
  208.   Metadata:
  209.     COMPATIBLE_BRANDS: qt
  210.     MAJOR_BRAND     : qt
  211.     MINOR_VERSION   : 537199360
  212.     encoder         : Lavf57.48.101
  213.     Stream #0:0(eng): Video: vp8 (libvpx), yuva420p(bt709/unknown/unknown), 1920x1080 [SAR 1:1 DAR 16:9], q=-1--1, 1000 kb/s, 60 fps, 1k tbn, 60 tbc (default)
  214.     Metadata:
  215.       HANDLER_NAME    : Apple Alias Data Handler
  216.       TIMECODE        : 00:00:00:00
  217.       DURATION        : 00:01:00.037000000
  218.       encoder         : Lavc57.54.101 libvpx
  219.     Side data:
  220.       cpb: bitrate max/min/avg: 0/0/1000000 buffer size: 0 vbv_delay: -1
  221.     Stream #0:1(eng): Audio: opus (libopus), 48000 Hz, stereo, flt, delay 312, padding 0, 96 kb/s (default)
  222.     Metadata:
  223.       HANDLER_NAME    : Apple Alias Data Handler
  224.       TIMECODE        : 00:00:00:00
  225.       DURATION        : 00:01:00.036000000
  226.       encoder         : Lavc57.54.101 libopus
  227. Stream mapping:
  228.   Stream #0:0 -> #0:0 (ffv1 (native) -> vp8 (libvpx))
  229.   Stream #0:1 -> #0:1 (vorbis (native) -> opus (libopus))
  230. Press [q] to stop, [?] for help
  231. frame= 3602 fps=5.8 q=0.0 Lsize=   24709kB time=00:01:00.05 bitrate=3370.4kbits/s speed=0.0962x
  232. video:23042kB audio:684kB subtitle:0kB other streams:0kB global headers:0kB muxing overhead: 4.143552%
  233.  
  234. C:\Users\Casa\Desktop\test\Fallout4>"C:\media-autobuild_suite-master\local64\bin-video\ffmpeg.exe" -y -i C:\Users\Casa\Desktop\test\Fallout4\Fallout4.mkv -c:v libvpx -pass 1 -b:v 1.5M -threads 7 -speed 4 -colorspace "bt709" -auto-alt-ref 1 -lag-in-frames 25 -an -f null NUL
  235. ffmpeg version N-81490-g2bc69cb-ga37e6dd+1 Copyright (c) 2000-2016 the FFmpeg developers
  236.   built with gcc 6.1.0 (Rev1, Built by MSYS2 project)
  237.   configuration:  --enable-avisynth --enable-libmp3lame --enable-libopus --enable-libvorbis --enable-libvpx --enable-libx264 --enable-libx265 --disable-w32threads --enable-decklink --enable-fontconfig --enable-frei0r --enable-libass --enable-libbluray --enable-libbs2b --enable-libcaca --enable-libfreetype --enable-libfribidi --enable-libgme --enable-libgsm --enable-libilbc --enable-libmfx --enable-libmodplug --enable-libopencore-amrnb --enable-libopencore-amrwb --enable-libopenjpeg --enable-librtmp --enable-libschroedinger --enable-libsoxr --enable-libspeex --enable-libtheora --enable-libtwolame --enable-libvidstab --enable-libvo-amrwbenc --enable-libwavpack --enable-libwebp --enable-libxavs --enable-libxvid --enable-libzimg --enable-openssl --enable-libsnappy --enable-gpl --enable-nvenc --enable-opencl --enable-opengl --enable-libcdio --enable-libfaac --enable-libfdk-aac --enable-libkvazaar --enable-librubberband --enable-libssh --enable-libtesseract --enable-libzvbi --enable-chromaprint --enable-libebur128 --enable-libopenh264 --enable-libopenmpt --enable-version3 --enable-nonfree --enable-filter=frei0r --disable-debug
  238.   libavutil      55. 29.100 / 55. 29.100
  239.   libavcodec     57. 54.101 / 57. 54.101
  240.   libavformat    57. 48.101 / 57. 48.101
  241.   libavdevice    57.  0.102 / 57.  0.102
  242.   libavfilter     6. 57.100 /  6. 57.100
  243.   libswscale      4.  1.100 /  4.  1.100
  244.   libswresample   2.  1.100 /  2.  1.100
  245.   libpostproc    54.  0.100 / 54.  0.100
  246. Input #0, matroska,webm, from 'C:\Users\Casa\Desktop\test\Fallout4\Fallout4.mkv':
  247.   Metadata:
  248.     COMPATIBLE_BRANDS: qt
  249.     MAJOR_BRAND     : qt
  250.     MINOR_VERSION   : 537199360
  251.     ENCODER         : Lavf57.48.101
  252.   Duration: 00:01:00.04, start: 0.000000, bitrate: 1312107 kb/s
  253.     Stream #0:0(eng): Video: ffv1 (FFV1 / 0x31564646), bgra, 1920x1080, SAR 1:1 DAR 16:9, 60 fps, 60 tbr, 1k tbn, 1k tbc (default)
  254.     Metadata:
  255.       HANDLER_NAME    : Apple Alias Data Handler
  256.       TIMECODE        : 00:00:00:00
  257.       ENCODER         : Lavc57.54.101 ffv1
  258.       DURATION        : 00:01:00.037000000
  259.     Stream #0:1(eng): Audio: vorbis, 48000 Hz, stereo, fltp (default)
  260.     Metadata:
  261.       HANDLER_NAME    : Apple Alias Data Handler
  262.       TIMECODE        : 00:00:00:00
  263.       ENCODER         : Lavc57.54.101 libvorbis
  264.       DURATION        : 00:01:00.036000000
  265. [libvpx @ 000001d5cee1f640] v1.6.0-353-g3a98508
  266. [null @ 000001d5ceaf9080] Using AVStream.codec to pass codec parameters to muxers is deprecated, use AVStream.codecpar instead.
  267. Output #0, null, to 'NUL':
  268.   Metadata:
  269.     COMPATIBLE_BRANDS: qt
  270.     MAJOR_BRAND     : qt
  271.     MINOR_VERSION   : 537199360
  272.     encoder         : Lavf57.48.101
  273.     Stream #0:0(eng): Video: vp8 (libvpx), yuva420p(bt709/unknown/unknown), 1920x1080 [SAR 1:1 DAR 16:9], q=-1--1, 1500 kb/s, 60 fps, 60 tbn, 60 tbc (default)
  274.     Metadata:
  275.       HANDLER_NAME    : Apple Alias Data Handler
  276.       TIMECODE        : 00:00:00:00
  277.       DURATION        : 00:01:00.037000000
  278.       encoder         : Lavc57.54.101 libvpx
  279.     Side data:
  280.       cpb: bitrate max/min/avg: 0/0/1500000 buffer size: 0 vbv_delay: -1
  281. Stream mapping:
  282.   Stream #0:0 -> #0:0 (ffv1 (native) -> vp8 (libvpx))
  283. Press [q] to stop, [?] for help
  284. frame= 3602 fps=7.6 q=0.0 Lsize=N/A time=00:00:00.00 bitrate=N/A speed=   0x
  285. video:0kB audio:0kB subtitle:0kB other streams:0kB global headers:0kB muxing overhead: unknown
  286. Output file is empty, nothing was encoded
  287.  
  288. C:\Users\Casa\Desktop\test\Fallout4>"C:\media-autobuild_suite-master\local64\bin-video\ffmpeg.exe" -y -i C:\Users\Casa\Desktop\test\Fallout4\Fallout4.mkv -c:v libvpx -pass 2 -b:v 1.5M -threads 7 -speed 2 -colorspace "bt709" -auto-alt-ref 1 -lag-in-frames 25 -f webm "C:\Users\Casa\Desktop\test\Fallout4\test_1.5_vp8.webm"
  289. ffmpeg version N-81490-g2bc69cb-ga37e6dd+1 Copyright (c) 2000-2016 the FFmpeg developers
  290.   built with gcc 6.1.0 (Rev1, Built by MSYS2 project)
  291.   configuration:  --enable-avisynth --enable-libmp3lame --enable-libopus --enable-libvorbis --enable-libvpx --enable-libx264 --enable-libx265 --disable-w32threads --enable-decklink --enable-fontconfig --enable-frei0r --enable-libass --enable-libbluray --enable-libbs2b --enable-libcaca --enable-libfreetype --enable-libfribidi --enable-libgme --enable-libgsm --enable-libilbc --enable-libmfx --enable-libmodplug --enable-libopencore-amrnb --enable-libopencore-amrwb --enable-libopenjpeg --enable-librtmp --enable-libschroedinger --enable-libsoxr --enable-libspeex --enable-libtheora --enable-libtwolame --enable-libvidstab --enable-libvo-amrwbenc --enable-libwavpack --enable-libwebp --enable-libxavs --enable-libxvid --enable-libzimg --enable-openssl --enable-libsnappy --enable-gpl --enable-nvenc --enable-opencl --enable-opengl --enable-libcdio --enable-libfaac --enable-libfdk-aac --enable-libkvazaar --enable-librubberband --enable-libssh --enable-libtesseract --enable-libzvbi --enable-chromaprint --enable-libebur128 --enable-libopenh264 --enable-libopenmpt --enable-version3 --enable-nonfree --enable-filter=frei0r --disable-debug
  292.   libavutil      55. 29.100 / 55. 29.100
  293.   libavcodec     57. 54.101 / 57. 54.101
  294.   libavformat    57. 48.101 / 57. 48.101
  295.   libavdevice    57.  0.102 / 57.  0.102
  296.   libavfilter     6. 57.100 /  6. 57.100
  297.   libswscale      4.  1.100 /  4.  1.100
  298.   libswresample   2.  1.100 /  2.  1.100
  299.   libpostproc    54.  0.100 / 54.  0.100
  300. Input #0, matroska,webm, from 'C:\Users\Casa\Desktop\test\Fallout4\Fallout4.mkv':
  301.   Metadata:
  302.     COMPATIBLE_BRANDS: qt
  303.     MAJOR_BRAND     : qt
  304.     MINOR_VERSION   : 537199360
  305.     ENCODER         : Lavf57.48.101
  306.   Duration: 00:01:00.04, start: 0.000000, bitrate: 1312107 kb/s
  307.     Stream #0:0(eng): Video: ffv1 (FFV1 / 0x31564646), bgra, 1920x1080, SAR 1:1 DAR 16:9, 60 fps, 60 tbr, 1k tbn, 1k tbc (default)
  308.     Metadata:
  309.       HANDLER_NAME    : Apple Alias Data Handler
  310.       TIMECODE        : 00:00:00:00
  311.       ENCODER         : Lavc57.54.101 ffv1
  312.       DURATION        : 00:01:00.037000000
  313.     Stream #0:1(eng): Audio: vorbis, 48000 Hz, stereo, fltp (default)
  314.     Metadata:
  315.       HANDLER_NAME    : Apple Alias Data Handler
  316.       TIMECODE        : 00:00:00:00
  317.       ENCODER         : Lavc57.54.101 libvorbis
  318.       DURATION        : 00:01:00.036000000
  319. [libvpx @ 000001ec1620cf20] v1.6.0-353-g3a98508
  320. [libopus @ 000001ec1620ef20] No bit rate set. Defaulting to 96000 bps.
  321. [webm @ 000001ec1620b280] Using AVStream.codec to pass codec parameters to muxers is deprecated, use AVStream.codecpar instead.
  322.     Last message repeated 1 times
  323. Output #0, webm, to 'C:\Users\Casa\Desktop\test\Fallout4\test_1.5_vp8.webm':
  324.   Metadata:
  325.     COMPATIBLE_BRANDS: qt
  326.     MAJOR_BRAND     : qt
  327.     MINOR_VERSION   : 537199360
  328.     encoder         : Lavf57.48.101
  329.     Stream #0:0(eng): Video: vp8 (libvpx), yuva420p(bt709/unknown/unknown), 1920x1080 [SAR 1:1 DAR 16:9], q=-1--1, 1500 kb/s, 60 fps, 1k tbn, 60 tbc (default)
  330.     Metadata:
  331.       HANDLER_NAME    : Apple Alias Data Handler
  332.       TIMECODE        : 00:00:00:00
  333.       DURATION        : 00:01:00.037000000
  334.       encoder         : Lavc57.54.101 libvpx
  335.     Side data:
  336.       cpb: bitrate max/min/avg: 0/0/1500000 buffer size: 0 vbv_delay: -1
  337.     Stream #0:1(eng): Audio: opus (libopus), 48000 Hz, stereo, flt, delay 312, padding 0, 96 kb/s (default)
  338.     Metadata:
  339.       HANDLER_NAME    : Apple Alias Data Handler
  340.       TIMECODE        : 00:00:00:00
  341.       DURATION        : 00:01:00.036000000
  342.       encoder         : Lavc57.54.101 libopus
  343. Stream mapping:
  344.   Stream #0:0 -> #0:0 (ffv1 (native) -> vp8 (libvpx))
  345.   Stream #0:1 -> #0:1 (vorbis (native) -> opus (libopus))
  346. Press [q] to stop, [?] for help
  347. frame= 3602 fps=5.8 q=0.0 Lsize=   24470kB time=00:01:00.05 bitrate=3337.8kbits/s speed=0.0964x
  348. video:22802kB audio:684kB subtitle:0kB other streams:0kB global headers:0kB muxing overhead: 4.188384%
  349.  
  350. C:\Users\Casa\Desktop\test\Fallout4>"C:\media-autobuild_suite-master\local64\bin-video\ffmpeg.exe" -y -i C:\Users\Casa\Desktop\test\Fallout4\Fallout4.mkv -c:v libvpx -pass 1 -b:v 2M -threads 7 -speed 4 -colorspace "bt709" -auto-alt-ref 1 -lag-in-frames 25 -an -f null NUL
  351. ffmpeg version N-81490-g2bc69cb-ga37e6dd+1 Copyright (c) 2000-2016 the FFmpeg developers
  352.   built with gcc 6.1.0 (Rev1, Built by MSYS2 project)
  353.   configuration:  --enable-avisynth --enable-libmp3lame --enable-libopus --enable-libvorbis --enable-libvpx --enable-libx264 --enable-libx265 --disable-w32threads --enable-decklink --enable-fontconfig --enable-frei0r --enable-libass --enable-libbluray --enable-libbs2b --enable-libcaca --enable-libfreetype --enable-libfribidi --enable-libgme --enable-libgsm --enable-libilbc --enable-libmfx --enable-libmodplug --enable-libopencore-amrnb --enable-libopencore-amrwb --enable-libopenjpeg --enable-librtmp --enable-libschroedinger --enable-libsoxr --enable-libspeex --enable-libtheora --enable-libtwolame --enable-libvidstab --enable-libvo-amrwbenc --enable-libwavpack --enable-libwebp --enable-libxavs --enable-libxvid --enable-libzimg --enable-openssl --enable-libsnappy --enable-gpl --enable-nvenc --enable-opencl --enable-opengl --enable-libcdio --enable-libfaac --enable-libfdk-aac --enable-libkvazaar --enable-librubberband --enable-libssh --enable-libtesseract --enable-libzvbi --enable-chromaprint --enable-libebur128 --enable-libopenh264 --enable-libopenmpt --enable-version3 --enable-nonfree --enable-filter=frei0r --disable-debug
  354.   libavutil      55. 29.100 / 55. 29.100
  355.   libavcodec     57. 54.101 / 57. 54.101
  356.   libavformat    57. 48.101 / 57. 48.101
  357.   libavdevice    57.  0.102 / 57.  0.102
  358.   libavfilter     6. 57.100 /  6. 57.100
  359.   libswscale      4.  1.100 /  4.  1.100
  360.   libswresample   2.  1.100 /  2.  1.100
  361.   libpostproc    54.  0.100 / 54.  0.100
  362. Input #0, matroska,webm, from 'C:\Users\Casa\Desktop\test\Fallout4\Fallout4.mkv':
  363.   Metadata:
  364.     COMPATIBLE_BRANDS: qt
  365.     MAJOR_BRAND     : qt
  366.     MINOR_VERSION   : 537199360
  367.     ENCODER         : Lavf57.48.101
  368.   Duration: 00:01:00.04, start: 0.000000, bitrate: 1312107 kb/s
  369.     Stream #0:0(eng): Video: ffv1 (FFV1 / 0x31564646), bgra, 1920x1080, SAR 1:1 DAR 16:9, 60 fps, 60 tbr, 1k tbn, 1k tbc (default)
  370.     Metadata:
  371.       HANDLER_NAME    : Apple Alias Data Handler
  372.       TIMECODE        : 00:00:00:00
  373.       ENCODER         : Lavc57.54.101 ffv1
  374.       DURATION        : 00:01:00.037000000
  375.     Stream #0:1(eng): Audio: vorbis, 48000 Hz, stereo, fltp (default)
  376.     Metadata:
  377.       HANDLER_NAME    : Apple Alias Data Handler
  378.       TIMECODE        : 00:00:00:00
  379.       ENCODER         : Lavc57.54.101 libvorbis
  380.       DURATION        : 00:01:00.036000000
  381. [libvpx @ 0000019e675ff640] v1.6.0-353-g3a98508
  382. [null @ 0000019e672b9080] Using AVStream.codec to pass codec parameters to muxers is deprecated, use AVStream.codecpar instead.
  383. Output #0, null, to 'NUL':
  384.   Metadata:
  385.     COMPATIBLE_BRANDS: qt
  386.     MAJOR_BRAND     : qt
  387.     MINOR_VERSION   : 537199360
  388.     encoder         : Lavf57.48.101
  389.     Stream #0:0(eng): Video: vp8 (libvpx), yuva420p(bt709/unknown/unknown), 1920x1080 [SAR 1:1 DAR 16:9], q=-1--1, 2000 kb/s, 60 fps, 60 tbn, 60 tbc (default)
  390.     Metadata:
  391.       HANDLER_NAME    : Apple Alias Data Handler
  392.       TIMECODE        : 00:00:00:00
  393.       DURATION        : 00:01:00.037000000
  394.       encoder         : Lavc57.54.101 libvpx
  395.     Side data:
  396.       cpb: bitrate max/min/avg: 0/0/2000000 buffer size: 0 vbv_delay: -1
  397. Stream mapping:
  398.   Stream #0:0 -> #0:0 (ffv1 (native) -> vp8 (libvpx))
  399. Press [q] to stop, [?] for help
  400. frame= 3602 fps=7.5 q=0.0 Lsize=N/A time=00:00:00.00 bitrate=N/A speed=   0x
  401. video:0kB audio:0kB subtitle:0kB other streams:0kB global headers:0kB muxing overhead: unknown
  402. Output file is empty, nothing was encoded
  403.  
  404. C:\Users\Casa\Desktop\test\Fallout4>"C:\media-autobuild_suite-master\local64\bin-video\ffmpeg.exe" -y -i C:\Users\Casa\Desktop\test\Fallout4\Fallout4.mkv -c:v libvpx -pass 2 -b:v 2M -threads 7 -speed 2 -colorspace "bt709" -auto-alt-ref 1 -lag-in-frames 25 -f webm "C:\Users\Casa\Desktop\test\Fallout4\test_2.0_vp8.webm"
  405. ffmpeg version N-81490-g2bc69cb-ga37e6dd+1 Copyright (c) 2000-2016 the FFmpeg developers
  406.   built with gcc 6.1.0 (Rev1, Built by MSYS2 project)
  407.   configuration:  --enable-avisynth --enable-libmp3lame --enable-libopus --enable-libvorbis --enable-libvpx --enable-libx264 --enable-libx265 --disable-w32threads --enable-decklink --enable-fontconfig --enable-frei0r --enable-libass --enable-libbluray --enable-libbs2b --enable-libcaca --enable-libfreetype --enable-libfribidi --enable-libgme --enable-libgsm --enable-libilbc --enable-libmfx --enable-libmodplug --enable-libopencore-amrnb --enable-libopencore-amrwb --enable-libopenjpeg --enable-librtmp --enable-libschroedinger --enable-libsoxr --enable-libspeex --enable-libtheora --enable-libtwolame --enable-libvidstab --enable-libvo-amrwbenc --enable-libwavpack --enable-libwebp --enable-libxavs --enable-libxvid --enable-libzimg --enable-openssl --enable-libsnappy --enable-gpl --enable-nvenc --enable-opencl --enable-opengl --enable-libcdio --enable-libfaac --enable-libfdk-aac --enable-libkvazaar --enable-librubberband --enable-libssh --enable-libtesseract --enable-libzvbi --enable-chromaprint --enable-libebur128 --enable-libopenh264 --enable-libopenmpt --enable-version3 --enable-nonfree --enable-filter=frei0r --disable-debug
  408.   libavutil      55. 29.100 / 55. 29.100
  409.   libavcodec     57. 54.101 / 57. 54.101
  410.   libavformat    57. 48.101 / 57. 48.101
  411.   libavdevice    57.  0.102 / 57.  0.102
  412.   libavfilter     6. 57.100 /  6. 57.100
  413.   libswscale      4.  1.100 /  4.  1.100
  414.   libswresample   2.  1.100 /  2.  1.100
  415.   libpostproc    54.  0.100 / 54.  0.100
  416. Input #0, matroska,webm, from 'C:\Users\Casa\Desktop\test\Fallout4\Fallout4.mkv':
  417.   Metadata:
  418.     COMPATIBLE_BRANDS: qt
  419.     MAJOR_BRAND     : qt
  420.     MINOR_VERSION   : 537199360
  421.     ENCODER         : Lavf57.48.101
  422.   Duration: 00:01:00.04, start: 0.000000, bitrate: 1312107 kb/s
  423.     Stream #0:0(eng): Video: ffv1 (FFV1 / 0x31564646), bgra, 1920x1080, SAR 1:1 DAR 16:9, 60 fps, 60 tbr, 1k tbn, 1k tbc (default)
  424.     Metadata:
  425.       HANDLER_NAME    : Apple Alias Data Handler
  426.       TIMECODE        : 00:00:00:00
  427.       ENCODER         : Lavc57.54.101 ffv1
  428.       DURATION        : 00:01:00.037000000
  429.     Stream #0:1(eng): Audio: vorbis, 48000 Hz, stereo, fltp (default)
  430.     Metadata:
  431.       HANDLER_NAME    : Apple Alias Data Handler
  432.       TIMECODE        : 00:00:00:00
  433.       ENCODER         : Lavc57.54.101 libvorbis
  434.       DURATION        : 00:01:00.036000000
  435. [libvpx @ 0000025cab0ecf20] v1.6.0-353-g3a98508
  436. [libopus @ 0000025cab0eef20] No bit rate set. Defaulting to 96000 bps.
  437. [webm @ 0000025cab0eb280] Using AVStream.codec to pass codec parameters to muxers is deprecated, use AVStream.codecpar instead.
  438.     Last message repeated 1 times
  439. Output #0, webm, to 'C:\Users\Casa\Desktop\test\Fallout4\test_2.0_vp8.webm':
  440.   Metadata:
  441.     COMPATIBLE_BRANDS: qt
  442.     MAJOR_BRAND     : qt
  443.     MINOR_VERSION   : 537199360
  444.     encoder         : Lavf57.48.101
  445.     Stream #0:0(eng): Video: vp8 (libvpx), yuva420p(bt709/unknown/unknown), 1920x1080 [SAR 1:1 DAR 16:9], q=-1--1, 2000 kb/s, 60 fps, 1k tbn, 60 tbc (default)
  446.     Metadata:
  447.       HANDLER_NAME    : Apple Alias Data Handler
  448.       TIMECODE        : 00:00:00:00
  449.       DURATION        : 00:01:00.037000000
  450.       encoder         : Lavc57.54.101 libvpx
  451.     Side data:
  452.       cpb: bitrate max/min/avg: 0/0/2000000 buffer size: 0 vbv_delay: -1
  453.     Stream #0:1(eng): Audio: opus (libopus), 48000 Hz, stereo, flt, delay 312, padding 0, 96 kb/s (default)
  454.     Metadata:
  455.       HANDLER_NAME    : Apple Alias Data Handler
  456.       TIMECODE        : 00:00:00:00
  457.       DURATION        : 00:01:00.036000000
  458.       encoder         : Lavc57.54.101 libopus
  459. Stream mapping:
  460.   Stream #0:0 -> #0:0 (ffv1 (native) -> vp8 (libvpx))
  461.   Stream #0:1 -> #0:1 (vorbis (native) -> opus (libopus))
  462. Press [q] to stop, [?] for help
  463. frame= 3602 fps=5.9 q=0.0 Lsize=   24418kB time=00:01:00.05 bitrate=3330.7kbits/s speed=0.0987x
  464. video:22747kB audio:684kB subtitle:0kB other streams:0kB global headers:0kB muxing overhead: 4.213393%
  465.  
  466. C:\Users\Casa\Desktop\test\Fallout4>"C:\media-autobuild_suite-master\local64\bin-video\ffmpeg.exe" -y -i C:\Users\Casa\Desktop\test\Fallout4\Fallout4.mkv -c:v libvpx -pass 1 -b:v 2.5M -threads 7 -speed 4 -colorspace "bt709" -auto-alt-ref 1 -lag-in-frames 25 -an -f null NUL
  467. ffmpeg version N-81490-g2bc69cb-ga37e6dd+1 Copyright (c) 2000-2016 the FFmpeg developers
  468.   built with gcc 6.1.0 (Rev1, Built by MSYS2 project)
  469.   configuration:  --enable-avisynth --enable-libmp3lame --enable-libopus --enable-libvorbis --enable-libvpx --enable-libx264 --enable-libx265 --disable-w32threads --enable-decklink --enable-fontconfig --enable-frei0r --enable-libass --enable-libbluray --enable-libbs2b --enable-libcaca --enable-libfreetype --enable-libfribidi --enable-libgme --enable-libgsm --enable-libilbc --enable-libmfx --enable-libmodplug --enable-libopencore-amrnb --enable-libopencore-amrwb --enable-libopenjpeg --enable-librtmp --enable-libschroedinger --enable-libsoxr --enable-libspeex --enable-libtheora --enable-libtwolame --enable-libvidstab --enable-libvo-amrwbenc --enable-libwavpack --enable-libwebp --enable-libxavs --enable-libxvid --enable-libzimg --enable-openssl --enable-libsnappy --enable-gpl --enable-nvenc --enable-opencl --enable-opengl --enable-libcdio --enable-libfaac --enable-libfdk-aac --enable-libkvazaar --enable-librubberband --enable-libssh --enable-libtesseract --enable-libzvbi --enable-chromaprint --enable-libebur128 --enable-libopenh264 --enable-libopenmpt --enable-version3 --enable-nonfree --enable-filter=frei0r --disable-debug
  470.   libavutil      55. 29.100 / 55. 29.100
  471.   libavcodec     57. 54.101 / 57. 54.101
  472.   libavformat    57. 48.101 / 57. 48.101
  473.   libavdevice    57.  0.102 / 57.  0.102
  474.   libavfilter     6. 57.100 /  6. 57.100
  475.   libswscale      4.  1.100 /  4.  1.100
  476.   libswresample   2.  1.100 /  2.  1.100
  477.   libpostproc    54.  0.100 / 54.  0.100
  478. Input #0, matroska,webm, from 'C:\Users\Casa\Desktop\test\Fallout4\Fallout4.mkv':
  479.   Metadata:
  480.     COMPATIBLE_BRANDS: qt
  481.     MAJOR_BRAND     : qt
  482.     MINOR_VERSION   : 537199360
  483.     ENCODER         : Lavf57.48.101
  484.   Duration: 00:01:00.04, start: 0.000000, bitrate: 1312107 kb/s
  485.     Stream #0:0(eng): Video: ffv1 (FFV1 / 0x31564646), bgra, 1920x1080, SAR 1:1 DAR 16:9, 60 fps, 60 tbr, 1k tbn, 1k tbc (default)
  486.     Metadata:
  487.       HANDLER_NAME    : Apple Alias Data Handler
  488.       TIMECODE        : 00:00:00:00
  489.       ENCODER         : Lavc57.54.101 ffv1
  490.       DURATION        : 00:01:00.037000000
  491.     Stream #0:1(eng): Audio: vorbis, 48000 Hz, stereo, fltp (default)
  492.     Metadata:
  493.       HANDLER_NAME    : Apple Alias Data Handler
  494.       TIMECODE        : 00:00:00:00
  495.       ENCODER         : Lavc57.54.101 libvorbis
  496.       DURATION        : 00:01:00.036000000
  497. [libvpx @ 000002bf058ef640] v1.6.0-353-g3a98508
  498. [null @ 000002bf055d9080] Using AVStream.codec to pass codec parameters to muxers is deprecated, use AVStream.codecpar instead.
  499. Output #0, null, to 'NUL':
  500.   Metadata:
  501.     COMPATIBLE_BRANDS: qt
  502.     MAJOR_BRAND     : qt
  503.     MINOR_VERSION   : 537199360
  504.     encoder         : Lavf57.48.101
  505.     Stream #0:0(eng): Video: vp8 (libvpx), yuva420p(bt709/unknown/unknown), 1920x1080 [SAR 1:1 DAR 16:9], q=-1--1, 2500 kb/s, 60 fps, 60 tbn, 60 tbc (default)
  506.     Metadata:
  507.       HANDLER_NAME    : Apple Alias Data Handler
  508.       TIMECODE        : 00:00:00:00
  509.       DURATION        : 00:01:00.037000000
  510.       encoder         : Lavc57.54.101 libvpx
  511.     Side data:
  512.       cpb: bitrate max/min/avg: 0/0/2500000 buffer size: 0 vbv_delay: -1
  513. Stream mapping:
  514.   Stream #0:0 -> #0:0 (ffv1 (native) -> vp8 (libvpx))
  515. Press [q] to stop, [?] for help
  516. frame= 3602 fps=7.7 q=0.0 Lsize=N/A time=00:00:00.00 bitrate=N/A speed=   0x
  517. video:0kB audio:0kB subtitle:0kB other streams:0kB global headers:0kB muxing overhead: unknown
  518. Output file is empty, nothing was encoded
  519.  
  520. C:\Users\Casa\Desktop\test\Fallout4>"C:\media-autobuild_suite-master\local64\bin-video\ffmpeg.exe" -y -i C:\Users\Casa\Desktop\test\Fallout4\Fallout4.mkv -c:v libvpx -pass 2 -b:v 2.5M -threads 7 -speed 2 -colorspace "bt709" -auto-alt-ref 1 -lag-in-frames 25 -f webm "C:\Users\Casa\Desktop\test\Fallout4\test_2.5_vp8.webm"
  521. ffmpeg version N-81490-g2bc69cb-ga37e6dd+1 Copyright (c) 2000-2016 the FFmpeg developers
  522.   built with gcc 6.1.0 (Rev1, Built by MSYS2 project)
  523.   configuration:  --enable-avisynth --enable-libmp3lame --enable-libopus --enable-libvorbis --enable-libvpx --enable-libx264 --enable-libx265 --disable-w32threads --enable-decklink --enable-fontconfig --enable-frei0r --enable-libass --enable-libbluray --enable-libbs2b --enable-libcaca --enable-libfreetype --enable-libfribidi --enable-libgme --enable-libgsm --enable-libilbc --enable-libmfx --enable-libmodplug --enable-libopencore-amrnb --enable-libopencore-amrwb --enable-libopenjpeg --enable-librtmp --enable-libschroedinger --enable-libsoxr --enable-libspeex --enable-libtheora --enable-libtwolame --enable-libvidstab --enable-libvo-amrwbenc --enable-libwavpack --enable-libwebp --enable-libxavs --enable-libxvid --enable-libzimg --enable-openssl --enable-libsnappy --enable-gpl --enable-nvenc --enable-opencl --enable-opengl --enable-libcdio --enable-libfaac --enable-libfdk-aac --enable-libkvazaar --enable-librubberband --enable-libssh --enable-libtesseract --enable-libzvbi --enable-chromaprint --enable-libebur128 --enable-libopenh264 --enable-libopenmpt --enable-version3 --enable-nonfree --enable-filter=frei0r --disable-debug
  524.   libavutil      55. 29.100 / 55. 29.100
  525.   libavcodec     57. 54.101 / 57. 54.101
  526.   libavformat    57. 48.101 / 57. 48.101
  527.   libavdevice    57.  0.102 / 57.  0.102
  528.   libavfilter     6. 57.100 /  6. 57.100
  529.   libswscale      4.  1.100 /  4.  1.100
  530.   libswresample   2.  1.100 /  2.  1.100
  531.   libpostproc    54.  0.100 / 54.  0.100
  532. Input #0, matroska,webm, from 'C:\Users\Casa\Desktop\test\Fallout4\Fallout4.mkv':
  533.   Metadata:
  534.     COMPATIBLE_BRANDS: qt
  535.     MAJOR_BRAND     : qt
  536.     MINOR_VERSION   : 537199360
  537.     ENCODER         : Lavf57.48.101
  538.   Duration: 00:01:00.04, start: 0.000000, bitrate: 1312107 kb/s
  539.     Stream #0:0(eng): Video: ffv1 (FFV1 / 0x31564646), bgra, 1920x1080, SAR 1:1 DAR 16:9, 60 fps, 60 tbr, 1k tbn, 1k tbc (default)
  540.     Metadata:
  541.       HANDLER_NAME    : Apple Alias Data Handler
  542.       TIMECODE        : 00:00:00:00
  543.       ENCODER         : Lavc57.54.101 ffv1
  544.       DURATION        : 00:01:00.037000000
  545.     Stream #0:1(eng): Audio: vorbis, 48000 Hz, stereo, fltp (default)
  546.     Metadata:
  547.       HANDLER_NAME    : Apple Alias Data Handler
  548.       TIMECODE        : 00:00:00:00
  549.       ENCODER         : Lavc57.54.101 libvorbis
  550.       DURATION        : 00:01:00.036000000
  551. [libvpx @ 00000213bae6cf20] v1.6.0-353-g3a98508
  552. [libopus @ 00000213bae6ef20] No bit rate set. Defaulting to 96000 bps.
  553. [webm @ 00000213bae6b280] Using AVStream.codec to pass codec parameters to muxers is deprecated, use AVStream.codecpar instead.
  554.     Last message repeated 1 times
  555. Output #0, webm, to 'C:\Users\Casa\Desktop\test\Fallout4\test_2.5_vp8.webm':
  556.   Metadata:
  557.     COMPATIBLE_BRANDS: qt
  558.     MAJOR_BRAND     : qt
  559.     MINOR_VERSION   : 537199360
  560.     encoder         : Lavf57.48.101
  561.     Stream #0:0(eng): Video: vp8 (libvpx), yuva420p(bt709/unknown/unknown), 1920x1080 [SAR 1:1 DAR 16:9], q=-1--1, 2500 kb/s, 60 fps, 1k tbn, 60 tbc (default)
  562.     Metadata:
  563.       HANDLER_NAME    : Apple Alias Data Handler
  564.       TIMECODE        : 00:00:00:00
  565.       DURATION        : 00:01:00.037000000
  566.       encoder         : Lavc57.54.101 libvpx
  567.     Side data:
  568.       cpb: bitrate max/min/avg: 0/0/2500000 buffer size: 0 vbv_delay: -1
  569.     Stream #0:1(eng): Audio: opus (libopus), 48000 Hz, stereo, flt, delay 312, padding 0, 96 kb/s (default)
  570.     Metadata:
  571.       HANDLER_NAME    : Apple Alias Data Handler
  572.       TIMECODE        : 00:00:00:00
  573.       DURATION        : 00:01:00.036000000
  574.       encoder         : Lavc57.54.101 libopus
  575. Stream mapping:
  576.   Stream #0:0 -> #0:0 (ffv1 (native) -> vp8 (libvpx))
  577.   Stream #0:1 -> #0:1 (vorbis (native) -> opus (libopus))
  578. Press [q] to stop, [?] for help
  579. frame= 3602 fps=5.8 q=0.0 Lsize=   24311kB time=00:01:00.05 bitrate=3316.0kbits/s speed=0.0975x
  580. video:22631kB audio:684kB subtitle:0kB other streams:0kB global headers:0kB muxing overhead: 4.272435%
  581.  
  582. C:\Users\Casa\Desktop\test\Fallout4>"C:\media-autobuild_suite-master\local64\bin-video\ffmpeg.exe" -y -i C:\Users\Casa\Desktop\test\Fallout4\Fallout4.mkv -c:v libvpx -pass 1 -b:v 3M -threads 7 -speed 4 -colorspace "bt709" -auto-alt-ref 1 -lag-in-frames 25 -an -f null NUL
  583. ffmpeg version N-81490-g2bc69cb-ga37e6dd+1 Copyright (c) 2000-2016 the FFmpeg developers
  584.   built with gcc 6.1.0 (Rev1, Built by MSYS2 project)
  585.   configuration:  --enable-avisynth --enable-libmp3lame --enable-libopus --enable-libvorbis --enable-libvpx --enable-libx264 --enable-libx265 --disable-w32threads --enable-decklink --enable-fontconfig --enable-frei0r --enable-libass --enable-libbluray --enable-libbs2b --enable-libcaca --enable-libfreetype --enable-libfribidi --enable-libgme --enable-libgsm --enable-libilbc --enable-libmfx --enable-libmodplug --enable-libopencore-amrnb --enable-libopencore-amrwb --enable-libopenjpeg --enable-librtmp --enable-libschroedinger --enable-libsoxr --enable-libspeex --enable-libtheora --enable-libtwolame --enable-libvidstab --enable-libvo-amrwbenc --enable-libwavpack --enable-libwebp --enable-libxavs --enable-libxvid --enable-libzimg --enable-openssl --enable-libsnappy --enable-gpl --enable-nvenc --enable-opencl --enable-opengl --enable-libcdio --enable-libfaac --enable-libfdk-aac --enable-libkvazaar --enable-librubberband --enable-libssh --enable-libtesseract --enable-libzvbi --enable-chromaprint --enable-libebur128 --enable-libopenh264 --enable-libopenmpt --enable-version3 --enable-nonfree --enable-filter=frei0r --disable-debug
  586.   libavutil      55. 29.100 / 55. 29.100
  587.   libavcodec     57. 54.101 / 57. 54.101
  588.   libavformat    57. 48.101 / 57. 48.101
  589.   libavdevice    57.  0.102 / 57.  0.102
  590.   libavfilter     6. 57.100 /  6. 57.100
  591.   libswscale      4.  1.100 /  4.  1.100
  592.   libswresample   2.  1.100 /  2.  1.100
  593.   libpostproc    54.  0.100 / 54.  0.100
  594. Input #0, matroska,webm, from 'C:\Users\Casa\Desktop\test\Fallout4\Fallout4.mkv':
  595.   Metadata:
  596.     COMPATIBLE_BRANDS: qt
  597.     MAJOR_BRAND     : qt
  598.     MINOR_VERSION   : 537199360
  599.     ENCODER         : Lavf57.48.101
  600.   Duration: 00:01:00.04, start: 0.000000, bitrate: 1312107 kb/s
  601.     Stream #0:0(eng): Video: ffv1 (FFV1 / 0x31564646), bgra, 1920x1080, SAR 1:1 DAR 16:9, 60 fps, 60 tbr, 1k tbn, 1k tbc (default)
  602.     Metadata:
  603.       HANDLER_NAME    : Apple Alias Data Handler
  604.       TIMECODE        : 00:00:00:00
  605.       ENCODER         : Lavc57.54.101 ffv1
  606.       DURATION        : 00:01:00.037000000
  607.     Stream #0:1(eng): Audio: vorbis, 48000 Hz, stereo, fltp (default)
  608.     Metadata:
  609.       HANDLER_NAME    : Apple Alias Data Handler
  610.       TIMECODE        : 00:00:00:00
  611.       ENCODER         : Lavc57.54.101 libvorbis
  612.       DURATION        : 00:01:00.036000000
  613. [libvpx @ 0000021f9780f640] v1.6.0-353-g3a98508
  614. [null @ 0000021f97529080] Using AVStream.codec to pass codec parameters to muxers is deprecated, use AVStream.codecpar instead.
  615. Output #0, null, to 'NUL':
  616.   Metadata:
  617.     COMPATIBLE_BRANDS: qt
  618.     MAJOR_BRAND     : qt
  619.     MINOR_VERSION   : 537199360
  620.     encoder         : Lavf57.48.101
  621.     Stream #0:0(eng): Video: vp8 (libvpx), yuva420p(bt709/unknown/unknown), 1920x1080 [SAR 1:1 DAR 16:9], q=-1--1, 3000 kb/s, 60 fps, 60 tbn, 60 tbc (default)
  622.     Metadata:
  623.       HANDLER_NAME    : Apple Alias Data Handler
  624.       TIMECODE        : 00:00:00:00
  625.       DURATION        : 00:01:00.037000000
  626.       encoder         : Lavc57.54.101 libvpx
  627.     Side data:
  628.       cpb: bitrate max/min/avg: 0/0/3000000 buffer size: 0 vbv_delay: -1
  629. Stream mapping:
  630.   Stream #0:0 -> #0:0 (ffv1 (native) -> vp8 (libvpx))
  631. Press [q] to stop, [?] for help
  632. frame= 3602 fps=7.5 q=0.0 Lsize=N/A time=00:00:00.00 bitrate=N/A speed=   0x
  633. video:0kB audio:0kB subtitle:0kB other streams:0kB global headers:0kB muxing overhead: unknown
  634. Output file is empty, nothing was encoded
  635.  
  636. C:\Users\Casa\Desktop\test\Fallout4>"C:\media-autobuild_suite-master\local64\bin-video\ffmpeg.exe" -y -i C:\Users\Casa\Desktop\test\Fallout4\Fallout4.mkv -c:v libvpx -pass 2 -b:v 3M -threads 7 -speed 2 -colorspace "bt709" -auto-alt-ref 1 -lag-in-frames 25 -f webm "C:\Users\Casa\Desktop\test\Fallout4\test_3.0_vp8.webm"
  637. ffmpeg version N-81490-g2bc69cb-ga37e6dd+1 Copyright (c) 2000-2016 the FFmpeg developers
  638.   built with gcc 6.1.0 (Rev1, Built by MSYS2 project)
  639.   configuration:  --enable-avisynth --enable-libmp3lame --enable-libopus --enable-libvorbis --enable-libvpx --enable-libx264 --enable-libx265 --disable-w32threads --enable-decklink --enable-fontconfig --enable-frei0r --enable-libass --enable-libbluray --enable-libbs2b --enable-libcaca --enable-libfreetype --enable-libfribidi --enable-libgme --enable-libgsm --enable-libilbc --enable-libmfx --enable-libmodplug --enable-libopencore-amrnb --enable-libopencore-amrwb --enable-libopenjpeg --enable-librtmp --enable-libschroedinger --enable-libsoxr --enable-libspeex --enable-libtheora --enable-libtwolame --enable-libvidstab --enable-libvo-amrwbenc --enable-libwavpack --enable-libwebp --enable-libxavs --enable-libxvid --enable-libzimg --enable-openssl --enable-libsnappy --enable-gpl --enable-nvenc --enable-opencl --enable-opengl --enable-libcdio --enable-libfaac --enable-libfdk-aac --enable-libkvazaar --enable-librubberband --enable-libssh --enable-libtesseract --enable-libzvbi --enable-chromaprint --enable-libebur128 --enable-libopenh264 --enable-libopenmpt --enable-version3 --enable-nonfree --enable-filter=frei0r --disable-debug
  640.   libavutil      55. 29.100 / 55. 29.100
  641.   libavcodec     57. 54.101 / 57. 54.101
  642.   libavformat    57. 48.101 / 57. 48.101
  643.   libavdevice    57.  0.102 / 57.  0.102
  644.   libavfilter     6. 57.100 /  6. 57.100
  645.   libswscale      4.  1.100 /  4.  1.100
  646.   libswresample   2.  1.100 /  2.  1.100
  647.   libpostproc    54.  0.100 / 54.  0.100
  648. Input #0, matroska,webm, from 'C:\Users\Casa\Desktop\test\Fallout4\Fallout4.mkv':
  649.   Metadata:
  650.     COMPATIBLE_BRANDS: qt
  651.     MAJOR_BRAND     : qt
  652.     MINOR_VERSION   : 537199360
  653.     ENCODER         : Lavf57.48.101
  654.   Duration: 00:01:00.04, start: 0.000000, bitrate: 1312107 kb/s
  655.     Stream #0:0(eng): Video: ffv1 (FFV1 / 0x31564646), bgra, 1920x1080, SAR 1:1 DAR 16:9, 60 fps, 60 tbr, 1k tbn, 1k tbc (default)
  656.     Metadata:
  657.       HANDLER_NAME    : Apple Alias Data Handler
  658.       TIMECODE        : 00:00:00:00
  659.       ENCODER         : Lavc57.54.101 ffv1
  660.       DURATION        : 00:01:00.037000000
  661.     Stream #0:1(eng): Audio: vorbis, 48000 Hz, stereo, fltp (default)
  662.     Metadata:
  663.       HANDLER_NAME    : Apple Alias Data Handler
  664.       TIMECODE        : 00:00:00:00
  665.       ENCODER         : Lavc57.54.101 libvorbis
  666.       DURATION        : 00:01:00.036000000
  667. [libvpx @ 000001a05d25cf20] v1.6.0-353-g3a98508
  668. [libopus @ 000001a05d25ef20] No bit rate set. Defaulting to 96000 bps.
  669. [webm @ 000001a05d25b280] Using AVStream.codec to pass codec parameters to muxers is deprecated, use AVStream.codecpar instead.
  670.     Last message repeated 1 times
  671. Output #0, webm, to 'C:\Users\Casa\Desktop\test\Fallout4\test_3.0_vp8.webm':
  672.   Metadata:
  673.     COMPATIBLE_BRANDS: qt
  674.     MAJOR_BRAND     : qt
  675.     MINOR_VERSION   : 537199360
  676.     encoder         : Lavf57.48.101
  677.     Stream #0:0(eng): Video: vp8 (libvpx), yuva420p(bt709/unknown/unknown), 1920x1080 [SAR 1:1 DAR 16:9], q=-1--1, 3000 kb/s, 60 fps, 1k tbn, 60 tbc (default)
  678.     Metadata:
  679.       HANDLER_NAME    : Apple Alias Data Handler
  680.       TIMECODE        : 00:00:00:00
  681.       DURATION        : 00:01:00.037000000
  682.       encoder         : Lavc57.54.101 libvpx
  683.     Side data:
  684.       cpb: bitrate max/min/avg: 0/0/3000000 buffer size: 0 vbv_delay: -1
  685.     Stream #0:1(eng): Audio: opus (libopus), 48000 Hz, stereo, flt, delay 312, padding 0, 96 kb/s (default)
  686.     Metadata:
  687.       HANDLER_NAME    : Apple Alias Data Handler
  688.       TIMECODE        : 00:00:00:00
  689.       DURATION        : 00:01:00.036000000
  690.       encoder         : Lavc57.54.101 libopus
  691. Stream mapping:
  692.   Stream #0:0 -> #0:0 (ffv1 (native) -> vp8 (libvpx))
  693.   Stream #0:1 -> #0:1 (vorbis (native) -> opus (libopus))
  694. Press [q] to stop, [?] for help
  695. frame= 3602 fps=5.5 q=0.0 Lsize=   24574kB time=00:01:00.05 bitrate=3352.0kbits/s speed=0.0922x
  696. video:22893kB audio:684kB subtitle:0kB other streams:0kB global headers:0kB muxing overhead: 4.232477%
  697.  
  698. C:\Users\Casa\Desktop\test\Fallout4>"C:\media-autobuild_suite-master\local64\bin-video\ffmpeg.exe" -y -i C:\Users\Casa\Desktop\test\Fallout4\Fallout4.mkv -c:v libvpx -pass 1 -b:v 3.5M -threads 7 -speed 4 -colorspace "bt709" -auto-alt-ref 1 -lag-in-frames 25 -an -f null NUL
  699. ffmpeg version N-81490-g2bc69cb-ga37e6dd+1 Copyright (c) 2000-2016 the FFmpeg developers
  700.   built with gcc 6.1.0 (Rev1, Built by MSYS2 project)
  701.   configuration:  --enable-avisynth --enable-libmp3lame --enable-libopus --enable-libvorbis --enable-libvpx --enable-libx264 --enable-libx265 --disable-w32threads --enable-decklink --enable-fontconfig --enable-frei0r --enable-libass --enable-libbluray --enable-libbs2b --enable-libcaca --enable-libfreetype --enable-libfribidi --enable-libgme --enable-libgsm --enable-libilbc --enable-libmfx --enable-libmodplug --enable-libopencore-amrnb --enable-libopencore-amrwb --enable-libopenjpeg --enable-librtmp --enable-libschroedinger --enable-libsoxr --enable-libspeex --enable-libtheora --enable-libtwolame --enable-libvidstab --enable-libvo-amrwbenc --enable-libwavpack --enable-libwebp --enable-libxavs --enable-libxvid --enable-libzimg --enable-openssl --enable-libsnappy --enable-gpl --enable-nvenc --enable-opencl --enable-opengl --enable-libcdio --enable-libfaac --enable-libfdk-aac --enable-libkvazaar --enable-librubberband --enable-libssh --enable-libtesseract --enable-libzvbi --enable-chromaprint --enable-libebur128 --enable-libopenh264 --enable-libopenmpt --enable-version3 --enable-nonfree --enable-filter=frei0r --disable-debug
  702.   libavutil      55. 29.100 / 55. 29.100
  703.   libavcodec     57. 54.101 / 57. 54.101
  704.   libavformat    57. 48.101 / 57. 48.101
  705.   libavdevice    57.  0.102 / 57.  0.102
  706.   libavfilter     6. 57.100 /  6. 57.100
  707.   libswscale      4.  1.100 /  4.  1.100
  708.   libswresample   2.  1.100 /  2.  1.100
  709.   libpostproc    54.  0.100 / 54.  0.100
  710. Input #0, matroska,webm, from 'C:\Users\Casa\Desktop\test\Fallout4\Fallout4.mkv':
  711.   Metadata:
  712.     COMPATIBLE_BRANDS: qt
  713.     MAJOR_BRAND     : qt
  714.     MINOR_VERSION   : 537199360
  715.     ENCODER         : Lavf57.48.101
  716.   Duration: 00:01:00.04, start: 0.000000, bitrate: 1312107 kb/s
  717.     Stream #0:0(eng): Video: ffv1 (FFV1 / 0x31564646), bgra, 1920x1080, SAR 1:1 DAR 16:9, 60 fps, 60 tbr, 1k tbn, 1k tbc (default)
  718.     Metadata:
  719.       HANDLER_NAME    : Apple Alias Data Handler
  720.       TIMECODE        : 00:00:00:00
  721.       ENCODER         : Lavc57.54.101 ffv1
  722.       DURATION        : 00:01:00.037000000
  723.     Stream #0:1(eng): Audio: vorbis, 48000 Hz, stereo, fltp (default)
  724.     Metadata:
  725.       HANDLER_NAME    : Apple Alias Data Handler
  726.       TIMECODE        : 00:00:00:00
  727.       ENCODER         : Lavc57.54.101 libvorbis
  728.       DURATION        : 00:01:00.036000000
  729. [libvpx @ 000002043c0df640] v1.6.0-353-g3a98508
  730. [null @ 000002043bd29080] Using AVStream.codec to pass codec parameters to muxers is deprecated, use AVStream.codecpar instead.
  731. Output #0, null, to 'NUL':
  732.   Metadata:
  733.     COMPATIBLE_BRANDS: qt
  734.     MAJOR_BRAND     : qt
  735.     MINOR_VERSION   : 537199360
  736.     encoder         : Lavf57.48.101
  737.     Stream #0:0(eng): Video: vp8 (libvpx), yuva420p(bt709/unknown/unknown), 1920x1080 [SAR 1:1 DAR 16:9], q=-1--1, 3500 kb/s, 60 fps, 60 tbn, 60 tbc (default)
  738.     Metadata:
  739.       HANDLER_NAME    : Apple Alias Data Handler
  740.       TIMECODE        : 00:00:00:00
  741.       DURATION        : 00:01:00.037000000
  742.       encoder         : Lavc57.54.101 libvpx
  743.     Side data:
  744.       cpb: bitrate max/min/avg: 0/0/3500000 buffer size: 0 vbv_delay: -1
  745. Stream mapping:
  746.   Stream #0:0 -> #0:0 (ffv1 (native) -> vp8 (libvpx))
  747. Press [q] to stop, [?] for help
  748. frame= 3602 fps=7.7 q=0.0 Lsize=N/A time=00:00:00.00 bitrate=N/A speed=   0x
  749. video:0kB audio:0kB subtitle:0kB other streams:0kB global headers:0kB muxing overhead: unknown
  750. Output file is empty, nothing was encoded
  751.  
  752. C:\Users\Casa\Desktop\test\Fallout4>"C:\media-autobuild_suite-master\local64\bin-video\ffmpeg.exe" -y -i C:\Users\Casa\Desktop\test\Fallout4\Fallout4.mkv -c:v libvpx -pass 2 -b:v 3.5M -threads 7 -speed 2 -colorspace "bt709" -auto-alt-ref 1 -lag-in-frames 25 -f webm "C:\Users\Casa\Desktop\test\Fallout4\test_3.5_vp8.webm"
  753. ffmpeg version N-81490-g2bc69cb-ga37e6dd+1 Copyright (c) 2000-2016 the FFmpeg developers
  754.   built with gcc 6.1.0 (Rev1, Built by MSYS2 project)
  755.   configuration:  --enable-avisynth --enable-libmp3lame --enable-libopus --enable-libvorbis --enable-libvpx --enable-libx264 --enable-libx265 --disable-w32threads --enable-decklink --enable-fontconfig --enable-frei0r --enable-libass --enable-libbluray --enable-libbs2b --enable-libcaca --enable-libfreetype --enable-libfribidi --enable-libgme --enable-libgsm --enable-libilbc --enable-libmfx --enable-libmodplug --enable-libopencore-amrnb --enable-libopencore-amrwb --enable-libopenjpeg --enable-librtmp --enable-libschroedinger --enable-libsoxr --enable-libspeex --enable-libtheora --enable-libtwolame --enable-libvidstab --enable-libvo-amrwbenc --enable-libwavpack --enable-libwebp --enable-libxavs --enable-libxvid --enable-libzimg --enable-openssl --enable-libsnappy --enable-gpl --enable-nvenc --enable-opencl --enable-opengl --enable-libcdio --enable-libfaac --enable-libfdk-aac --enable-libkvazaar --enable-librubberband --enable-libssh --enable-libtesseract --enable-libzvbi --enable-chromaprint --enable-libebur128 --enable-libopenh264 --enable-libopenmpt --enable-version3 --enable-nonfree --enable-filter=frei0r --disable-debug
  756.   libavutil      55. 29.100 / 55. 29.100
  757.   libavcodec     57. 54.101 / 57. 54.101
  758.   libavformat    57. 48.101 / 57. 48.101
  759.   libavdevice    57.  0.102 / 57.  0.102
  760.   libavfilter     6. 57.100 /  6. 57.100
  761.   libswscale      4.  1.100 /  4.  1.100
  762.   libswresample   2.  1.100 /  2.  1.100
  763.   libpostproc    54.  0.100 / 54.  0.100
  764. Input #0, matroska,webm, from 'C:\Users\Casa\Desktop\test\Fallout4\Fallout4.mkv':
  765.   Metadata:
  766.     COMPATIBLE_BRANDS: qt
  767.     MAJOR_BRAND     : qt
  768.     MINOR_VERSION   : 537199360
  769.     ENCODER         : Lavf57.48.101
  770.   Duration: 00:01:00.04, start: 0.000000, bitrate: 1312107 kb/s
  771.     Stream #0:0(eng): Video: ffv1 (FFV1 / 0x31564646), bgra, 1920x1080, SAR 1:1 DAR 16:9, 60 fps, 60 tbr, 1k tbn, 1k tbc (default)
  772.     Metadata:
  773.       HANDLER_NAME    : Apple Alias Data Handler
  774.       TIMECODE        : 00:00:00:00
  775.       ENCODER         : Lavc57.54.101 ffv1
  776.       DURATION        : 00:01:00.037000000
  777.     Stream #0:1(eng): Audio: vorbis, 48000 Hz, stereo, fltp (default)
  778.     Metadata:
  779.       HANDLER_NAME    : Apple Alias Data Handler
  780.       TIMECODE        : 00:00:00:00
  781.       ENCODER         : Lavc57.54.101 libvorbis
  782.       DURATION        : 00:01:00.036000000
  783. [libvpx @ 000001af94c7cf20] v1.6.0-353-g3a98508
  784. [libopus @ 000001af94c7ef20] No bit rate set. Defaulting to 96000 bps.
  785. [webm @ 000001af94c7b280] Using AVStream.codec to pass codec parameters to muxers is deprecated, use AVStream.codecpar instead.
  786.     Last message repeated 1 times
  787. Output #0, webm, to 'C:\Users\Casa\Desktop\test\Fallout4\test_3.5_vp8.webm':
  788.   Metadata:
  789.     COMPATIBLE_BRANDS: qt
  790.     MAJOR_BRAND     : qt
  791.     MINOR_VERSION   : 537199360
  792.     encoder         : Lavf57.48.101
  793.     Stream #0:0(eng): Video: vp8 (libvpx), yuva420p(bt709/unknown/unknown), 1920x1080 [SAR 1:1 DAR 16:9], q=-1--1, 3500 kb/s, 60 fps, 1k tbn, 60 tbc (default)
  794.     Metadata:
  795.       HANDLER_NAME    : Apple Alias Data Handler
  796.       TIMECODE        : 00:00:00:00
  797.       DURATION        : 00:01:00.037000000
  798.       encoder         : Lavc57.54.101 libvpx
  799.     Side data:
  800.       cpb: bitrate max/min/avg: 0/0/3500000 buffer size: 0 vbv_delay: -1
  801.     Stream #0:1(eng): Audio: opus (libopus), 48000 Hz, stereo, flt, delay 312, padding 0, 96 kb/s (default)
  802.     Metadata:
  803.       HANDLER_NAME    : Apple Alias Data Handler
  804.       TIMECODE        : 00:00:00:00
  805.       DURATION        : 00:01:00.036000000
  806.       encoder         : Lavc57.54.101 libopus
  807. Stream mapping:
  808.   Stream #0:0 -> #0:0 (ffv1 (native) -> vp8 (libvpx))
  809.   Stream #0:1 -> #0:1 (vorbis (native) -> opus (libopus))
  810. Press [q] to stop, [?] for help
  811. frame= 3602 fps=5.5 q=0.0 Lsize=   26059kB time=00:01:00.05 bitrate=3554.5kbits/s speed=0.0912x
  812. video:24362kB audio:684kB subtitle:0kB other streams:0kB global headers:0kB muxing overhead: 4.043060%
  813.  
  814. C:\Users\Casa\Desktop\test\Fallout4>"C:\media-autobuild_suite-master\local64\bin-video\ffmpeg.exe" -y -i C:\Users\Casa\Desktop\test\Fallout4\Fallout4.mkv -c:v libvpx -pass 1 -b:v 4M -threads 7 -speed 4 -colorspace "bt709" -auto-alt-ref 1 -lag-in-frames 25 -an -f null NUL
  815. ffmpeg version N-81490-g2bc69cb-ga37e6dd+1 Copyright (c) 2000-2016 the FFmpeg developers
  816.   built with gcc 6.1.0 (Rev1, Built by MSYS2 project)
  817.   configuration:  --enable-avisynth --enable-libmp3lame --enable-libopus --enable-libvorbis --enable-libvpx --enable-libx264 --enable-libx265 --disable-w32threads --enable-decklink --enable-fontconfig --enable-frei0r --enable-libass --enable-libbluray --enable-libbs2b --enable-libcaca --enable-libfreetype --enable-libfribidi --enable-libgme --enable-libgsm --enable-libilbc --enable-libmfx --enable-libmodplug --enable-libopencore-amrnb --enable-libopencore-amrwb --enable-libopenjpeg --enable-librtmp --enable-libschroedinger --enable-libsoxr --enable-libspeex --enable-libtheora --enable-libtwolame --enable-libvidstab --enable-libvo-amrwbenc --enable-libwavpack --enable-libwebp --enable-libxavs --enable-libxvid --enable-libzimg --enable-openssl --enable-libsnappy --enable-gpl --enable-nvenc --enable-opencl --enable-opengl --enable-libcdio --enable-libfaac --enable-libfdk-aac --enable-libkvazaar --enable-librubberband --enable-libssh --enable-libtesseract --enable-libzvbi --enable-chromaprint --enable-libebur128 --enable-libopenh264 --enable-libopenmpt --enable-version3 --enable-nonfree --enable-filter=frei0r --disable-debug
  818.   libavutil      55. 29.100 / 55. 29.100
  819.   libavcodec     57. 54.101 / 57. 54.101
  820.   libavformat    57. 48.101 / 57. 48.101
  821.   libavdevice    57.  0.102 / 57.  0.102
  822.   libavfilter     6. 57.100 /  6. 57.100
  823.   libswscale      4.  1.100 /  4.  1.100
  824.   libswresample   2.  1.100 /  2.  1.100
  825.   libpostproc    54.  0.100 / 54.  0.100
  826. Input #0, matroska,webm, from 'C:\Users\Casa\Desktop\test\Fallout4\Fallout4.mkv':
  827.   Metadata:
  828.     COMPATIBLE_BRANDS: qt
  829.     MAJOR_BRAND     : qt
  830.     MINOR_VERSION   : 537199360
  831.     ENCODER         : Lavf57.48.101
  832.   Duration: 00:01:00.04, start: 0.000000, bitrate: 1312107 kb/s
  833.     Stream #0:0(eng): Video: ffv1 (FFV1 / 0x31564646), bgra, 1920x1080, SAR 1:1 DAR 16:9, 60 fps, 60 tbr, 1k tbn, 1k tbc (default)
  834.     Metadata:
  835.       HANDLER_NAME    : Apple Alias Data Handler
  836.       TIMECODE        : 00:00:00:00
  837.       ENCODER         : Lavc57.54.101 ffv1
  838.       DURATION        : 00:01:00.037000000
  839.     Stream #0:1(eng): Audio: vorbis, 48000 Hz, stereo, fltp (default)
  840.     Metadata:
  841.       HANDLER_NAME    : Apple Alias Data Handler
  842.       TIMECODE        : 00:00:00:00
  843.       ENCODER         : Lavc57.54.101 libvorbis
  844.       DURATION        : 00:01:00.036000000
  845. [libvpx @ 000002442bedf640] v1.6.0-353-g3a98508
  846. [null @ 000002442bbf9080] Using AVStream.codec to pass codec parameters to muxers is deprecated, use AVStream.codecpar instead.
  847. Output #0, null, to 'NUL':
  848.   Metadata:
  849.     COMPATIBLE_BRANDS: qt
  850.     MAJOR_BRAND     : qt
  851.     MINOR_VERSION   : 537199360
  852.     encoder         : Lavf57.48.101
  853.     Stream #0:0(eng): Video: vp8 (libvpx), yuva420p(bt709/unknown/unknown), 1920x1080 [SAR 1:1 DAR 16:9], q=-1--1, 4000 kb/s, 60 fps, 60 tbn, 60 tbc (default)
  854.     Metadata:
  855.       HANDLER_NAME    : Apple Alias Data Handler
  856.       TIMECODE        : 00:00:00:00
  857.       DURATION        : 00:01:00.037000000
  858.       encoder         : Lavc57.54.101 libvpx
  859.     Side data:
  860.       cpb: bitrate max/min/avg: 0/0/4000000 buffer size: 0 vbv_delay: -1
  861. Stream mapping:
  862.   Stream #0:0 -> #0:0 (ffv1 (native) -> vp8 (libvpx))
  863. Press [q] to stop, [?] for help
  864. frame= 3602 fps=7.4 q=0.0 Lsize=N/A time=00:00:00.00 bitrate=N/A speed=   0x
  865. video:0kB audio:0kB subtitle:0kB other streams:0kB global headers:0kB muxing overhead: unknown
  866. Output file is empty, nothing was encoded
  867.  
  868. C:\Users\Casa\Desktop\test\Fallout4>"C:\media-autobuild_suite-master\local64\bin-video\ffmpeg.exe" -y -i C:\Users\Casa\Desktop\test\Fallout4\Fallout4.mkv -c:v libvpx -pass 2 -b:v 4M -threads 7 -speed 2 -colorspace "bt709" -auto-alt-ref 1 -lag-in-frames 25 -f webm "C:\Users\Casa\Desktop\test\Fallout4\test_4.0_vp8.webm"
  869. ffmpeg version N-81490-g2bc69cb-ga37e6dd+1 Copyright (c) 2000-2016 the FFmpeg developers
  870.   built with gcc 6.1.0 (Rev1, Built by MSYS2 project)
  871.   configuration:  --enable-avisynth --enable-libmp3lame --enable-libopus --enable-libvorbis --enable-libvpx --enable-libx264 --enable-libx265 --disable-w32threads --enable-decklink --enable-fontconfig --enable-frei0r --enable-libass --enable-libbluray --enable-libbs2b --enable-libcaca --enable-libfreetype --enable-libfribidi --enable-libgme --enable-libgsm --enable-libilbc --enable-libmfx --enable-libmodplug --enable-libopencore-amrnb --enable-libopencore-amrwb --enable-libopenjpeg --enable-librtmp --enable-libschroedinger --enable-libsoxr --enable-libspeex --enable-libtheora --enable-libtwolame --enable-libvidstab --enable-libvo-amrwbenc --enable-libwavpack --enable-libwebp --enable-libxavs --enable-libxvid --enable-libzimg --enable-openssl --enable-libsnappy --enable-gpl --enable-nvenc --enable-opencl --enable-opengl --enable-libcdio --enable-libfaac --enable-libfdk-aac --enable-libkvazaar --enable-librubberband --enable-libssh --enable-libtesseract --enable-libzvbi --enable-chromaprint --enable-libebur128 --enable-libopenh264 --enable-libopenmpt --enable-version3 --enable-nonfree --enable-filter=frei0r --disable-debug
  872.   libavutil      55. 29.100 / 55. 29.100
  873.   libavcodec     57. 54.101 / 57. 54.101
  874.   libavformat    57. 48.101 / 57. 48.101
  875.   libavdevice    57.  0.102 / 57.  0.102
  876.   libavfilter     6. 57.100 /  6. 57.100
  877.   libswscale      4.  1.100 /  4.  1.100
  878.   libswresample   2.  1.100 /  2.  1.100
  879.   libpostproc    54.  0.100 / 54.  0.100
  880. Input #0, matroska,webm, from 'C:\Users\Casa\Desktop\test\Fallout4\Fallout4.mkv':
  881.   Metadata:
  882.     COMPATIBLE_BRANDS: qt
  883.     MAJOR_BRAND     : qt
  884.     MINOR_VERSION   : 537199360
  885.     ENCODER         : Lavf57.48.101
  886.   Duration: 00:01:00.04, start: 0.000000, bitrate: 1312107 kb/s
  887.     Stream #0:0(eng): Video: ffv1 (FFV1 / 0x31564646), bgra, 1920x1080, SAR 1:1 DAR 16:9, 60 fps, 60 tbr, 1k tbn, 1k tbc (default)
  888.     Metadata:
  889.       HANDLER_NAME    : Apple Alias Data Handler
  890.       TIMECODE        : 00:00:00:00
  891.       ENCODER         : Lavc57.54.101 ffv1
  892.       DURATION        : 00:01:00.037000000
  893.     Stream #0:1(eng): Audio: vorbis, 48000 Hz, stereo, fltp (default)
  894.     Metadata:
  895.       HANDLER_NAME    : Apple Alias Data Handler
  896.       TIMECODE        : 00:00:00:00
  897.       ENCODER         : Lavc57.54.101 libvorbis
  898.       DURATION        : 00:01:00.036000000
  899. [libvpx @ 000001c204c0cf20] v1.6.0-353-g3a98508
  900. [libopus @ 000001c204c0ef20] No bit rate set. Defaulting to 96000 bps.
  901. [webm @ 000001c204c0b280] Using AVStream.codec to pass codec parameters to muxers is deprecated, use AVStream.codecpar instead.
  902.     Last message repeated 1 times
  903. Output #0, webm, to 'C:\Users\Casa\Desktop\test\Fallout4\test_4.0_vp8.webm':
  904.   Metadata:
  905.     COMPATIBLE_BRANDS: qt
  906.     MAJOR_BRAND     : qt
  907.     MINOR_VERSION   : 537199360
  908.     encoder         : Lavf57.48.101
  909.     Stream #0:0(eng): Video: vp8 (libvpx), yuva420p(bt709/unknown/unknown), 1920x1080 [SAR 1:1 DAR 16:9], q=-1--1, 4000 kb/s, 60 fps, 1k tbn, 60 tbc (default)
  910.     Metadata:
  911.       HANDLER_NAME    : Apple Alias Data Handler
  912.       TIMECODE        : 00:00:00:00
  913.       DURATION        : 00:01:00.037000000
  914.       encoder         : Lavc57.54.101 libvpx
  915.     Side data:
  916.       cpb: bitrate max/min/avg: 0/0/4000000 buffer size: 0 vbv_delay: -1
  917.     Stream #0:1(eng): Audio: opus (libopus), 48000 Hz, stereo, flt, delay 312, padding 0, 96 kb/s (default)
  918.     Metadata:
  919.       HANDLER_NAME    : Apple Alias Data Handler
  920.       TIMECODE        : 00:00:00:00
  921.       DURATION        : 00:01:00.036000000
  922.       encoder         : Lavc57.54.101 libopus
  923. Stream mapping:
  924.   Stream #0:0 -> #0:0 (ffv1 (native) -> vp8 (libvpx))
  925.   Stream #0:1 -> #0:1 (vorbis (native) -> opus (libopus))
  926. Press [q] to stop, [?] for help
  927. frame= 3602 fps=5.3 q=0.0 Lsize=   29066kB time=00:01:00.05 bitrate=3964.8kbits/s speed=0.0891x
  928. video:27357kB audio:684kB subtitle:0kB other streams:0kB global headers:0kB muxing overhead: 3.657858%
  929.  
  930. C:\Users\Casa\Desktop\test\Fallout4>"C:\media-autobuild_suite-master\local64\bin-video\ffmpeg.exe" -y -i C:\Users\Casa\Desktop\test\Fallout4\Fallout4.mkv -c:v libvpx -pass 1 -b:v 4.5M -threads 7 -speed 4 -colorspace "bt709" -auto-alt-ref 1 -lag-in-frames 25 -an -f null NUL
  931. ffmpeg version N-81490-g2bc69cb-ga37e6dd+1 Copyright (c) 2000-2016 the FFmpeg developers
  932.   built with gcc 6.1.0 (Rev1, Built by MSYS2 project)
  933.   configuration:  --enable-avisynth --enable-libmp3lame --enable-libopus --enable-libvorbis --enable-libvpx --enable-libx264 --enable-libx265 --disable-w32threads --enable-decklink --enable-fontconfig --enable-frei0r --enable-libass --enable-libbluray --enable-libbs2b --enable-libcaca --enable-libfreetype --enable-libfribidi --enable-libgme --enable-libgsm --enable-libilbc --enable-libmfx --enable-libmodplug --enable-libopencore-amrnb --enable-libopencore-amrwb --enable-libopenjpeg --enable-librtmp --enable-libschroedinger --enable-libsoxr --enable-libspeex --enable-libtheora --enable-libtwolame --enable-libvidstab --enable-libvo-amrwbenc --enable-libwavpack --enable-libwebp --enable-libxavs --enable-libxvid --enable-libzimg --enable-openssl --enable-libsnappy --enable-gpl --enable-nvenc --enable-opencl --enable-opengl --enable-libcdio --enable-libfaac --enable-libfdk-aac --enable-libkvazaar --enable-librubberband --enable-libssh --enable-libtesseract --enable-libzvbi --enable-chromaprint --enable-libebur128 --enable-libopenh264 --enable-libopenmpt --enable-version3 --enable-nonfree --enable-filter=frei0r --disable-debug
  934.   libavutil      55. 29.100 / 55. 29.100
  935.   libavcodec     57. 54.101 / 57. 54.101
  936.   libavformat    57. 48.101 / 57. 48.101
  937.   libavdevice    57.  0.102 / 57.  0.102
  938.   libavfilter     6. 57.100 /  6. 57.100
  939.   libswscale      4.  1.100 /  4.  1.100
  940.   libswresample   2.  1.100 /  2.  1.100
  941.   libpostproc    54.  0.100 / 54.  0.100
  942. Input #0, matroska,webm, from 'C:\Users\Casa\Desktop\test\Fallout4\Fallout4.mkv':
  943.   Metadata:
  944.     COMPATIBLE_BRANDS: qt
  945.     MAJOR_BRAND     : qt
  946.     MINOR_VERSION   : 537199360
  947.     ENCODER         : Lavf57.48.101
  948.   Duration: 00:01:00.04, start: 0.000000, bitrate: 1312107 kb/s
  949.     Stream #0:0(eng): Video: ffv1 (FFV1 / 0x31564646), bgra, 1920x1080, SAR 1:1 DAR 16:9, 60 fps, 60 tbr, 1k tbn, 1k tbc (default)
  950.     Metadata:
  951.       HANDLER_NAME    : Apple Alias Data Handler
  952.       TIMECODE        : 00:00:00:00
  953.       ENCODER         : Lavc57.54.101 ffv1
  954.       DURATION        : 00:01:00.037000000
  955.     Stream #0:1(eng): Audio: vorbis, 48000 Hz, stereo, fltp (default)
  956.     Metadata:
  957.       HANDLER_NAME    : Apple Alias Data Handler
  958.       TIMECODE        : 00:00:00:00
  959.       ENCODER         : Lavc57.54.101 libvorbis
  960.       DURATION        : 00:01:00.036000000
  961. [libvpx @ 000001fd1afdf640] v1.6.0-353-g3a98508
  962. [null @ 000001fd1acb9080] Using AVStream.codec to pass codec parameters to muxers is deprecated, use AVStream.codecpar instead.
  963. Output #0, null, to 'NUL':
  964.   Metadata:
  965.     COMPATIBLE_BRANDS: qt
  966.     MAJOR_BRAND     : qt
  967.     MINOR_VERSION   : 537199360
  968.     encoder         : Lavf57.48.101
  969.     Stream #0:0(eng): Video: vp8 (libvpx), yuva420p(bt709/unknown/unknown), 1920x1080 [SAR 1:1 DAR 16:9], q=-1--1, 4500 kb/s, 60 fps, 60 tbn, 60 tbc (default)
  970.     Metadata:
  971.       HANDLER_NAME    : Apple Alias Data Handler
  972.       TIMECODE        : 00:00:00:00
  973.       DURATION        : 00:01:00.037000000
  974.       encoder         : Lavc57.54.101 libvpx
  975.     Side data:
  976.       cpb: bitrate max/min/avg: 0/0/4500000 buffer size: 0 vbv_delay: -1
  977. Stream mapping:
  978.   Stream #0:0 -> #0:0 (ffv1 (native) -> vp8 (libvpx))
  979. Press [q] to stop, [?] for help
  980. frame= 3602 fps=7.7 q=0.0 Lsize=N/A time=00:00:00.00 bitrate=N/A speed=   0x
  981. video:0kB audio:0kB subtitle:0kB other streams:0kB global headers:0kB muxing overhead: unknown
  982. Output file is empty, nothing was encoded
  983.  
  984. C:\Users\Casa\Desktop\test\Fallout4>"C:\media-autobuild_suite-master\local64\bin-video\ffmpeg.exe" -y -i C:\Users\Casa\Desktop\test\Fallout4\Fallout4.mkv -c:v libvpx -pass 2 -b:v 4.5M -threads 7 -speed 2 -colorspace "bt709" -auto-alt-ref 1 -lag-in-frames 25 -f webm "C:\Users\Casa\Desktop\test\Fallout4\test_4.5_vp8.webm"
  985. ffmpeg version N-81490-g2bc69cb-ga37e6dd+1 Copyright (c) 2000-2016 the FFmpeg developers
  986.   built with gcc 6.1.0 (Rev1, Built by MSYS2 project)
  987.   configuration:  --enable-avisynth --enable-libmp3lame --enable-libopus --enable-libvorbis --enable-libvpx --enable-libx264 --enable-libx265 --disable-w32threads --enable-decklink --enable-fontconfig --enable-frei0r --enable-libass --enable-libbluray --enable-libbs2b --enable-libcaca --enable-libfreetype --enable-libfribidi --enable-libgme --enable-libgsm --enable-libilbc --enable-libmfx --enable-libmodplug --enable-libopencore-amrnb --enable-libopencore-amrwb --enable-libopenjpeg --enable-librtmp --enable-libschroedinger --enable-libsoxr --enable-libspeex --enable-libtheora --enable-libtwolame --enable-libvidstab --enable-libvo-amrwbenc --enable-libwavpack --enable-libwebp --enable-libxavs --enable-libxvid --enable-libzimg --enable-openssl --enable-libsnappy --enable-gpl --enable-nvenc --enable-opencl --enable-opengl --enable-libcdio --enable-libfaac --enable-libfdk-aac --enable-libkvazaar --enable-librubberband --enable-libssh --enable-libtesseract --enable-libzvbi --enable-chromaprint --enable-libebur128 --enable-libopenh264 --enable-libopenmpt --enable-version3 --enable-nonfree --enable-filter=frei0r --disable-debug
  988.   libavutil      55. 29.100 / 55. 29.100
  989.   libavcodec     57. 54.101 / 57. 54.101
  990.   libavformat    57. 48.101 / 57. 48.101
  991.   libavdevice    57.  0.102 / 57.  0.102
  992.   libavfilter     6. 57.100 /  6. 57.100
  993.   libswscale      4.  1.100 /  4.  1.100
  994.   libswresample   2.  1.100 /  2.  1.100
  995.   libpostproc    54.  0.100 / 54.  0.100
  996. Input #0, matroska,webm, from 'C:\Users\Casa\Desktop\test\Fallout4\Fallout4.mkv':
  997.   Metadata:
  998.     COMPATIBLE_BRANDS: qt
  999.     MAJOR_BRAND     : qt
  1000.     MINOR_VERSION   : 537199360
  1001.     ENCODER         : Lavf57.48.101
  1002.   Duration: 00:01:00.04, start: 0.000000, bitrate: 1312107 kb/s
  1003.     Stream #0:0(eng): Video: ffv1 (FFV1 / 0x31564646), bgra, 1920x1080, SAR 1:1 DAR 16:9, 60 fps, 60 tbr, 1k tbn, 1k tbc (default)
  1004.     Metadata:
  1005.       HANDLER_NAME    : Apple Alias Data Handler
  1006.       TIMECODE        : 00:00:00:00
  1007.       ENCODER         : Lavc57.54.101 ffv1
  1008.       DURATION        : 00:01:00.037000000
  1009.     Stream #0:1(eng): Audio: vorbis, 48000 Hz, stereo, fltp (default)
  1010.     Metadata:
  1011.       HANDLER_NAME    : Apple Alias Data Handler
  1012.       TIMECODE        : 00:00:00:00
  1013.       ENCODER         : Lavc57.54.101 libvorbis
  1014.       DURATION        : 00:01:00.036000000
  1015. [libvpx @ 0000021a054ecf20] v1.6.0-353-g3a98508
  1016. [libopus @ 0000021a054eef20] No bit rate set. Defaulting to 96000 bps.
  1017. [webm @ 0000021a054eb280] Using AVStream.codec to pass codec parameters to muxers is deprecated, use AVStream.codecpar instead.
  1018.     Last message repeated 1 times
  1019. Output #0, webm, to 'C:\Users\Casa\Desktop\test\Fallout4\test_4.5_vp8.webm':
  1020.   Metadata:
  1021.     COMPATIBLE_BRANDS: qt
  1022.     MAJOR_BRAND     : qt
  1023.     MINOR_VERSION   : 537199360
  1024.     encoder         : Lavf57.48.101
  1025.     Stream #0:0(eng): Video: vp8 (libvpx), yuva420p(bt709/unknown/unknown), 1920x1080 [SAR 1:1 DAR 16:9], q=-1--1, 4500 kb/s, 60 fps, 1k tbn, 60 tbc (default)
  1026.     Metadata:
  1027.       HANDLER_NAME    : Apple Alias Data Handler
  1028.       TIMECODE        : 00:00:00:00
  1029.       DURATION        : 00:01:00.037000000
  1030.       encoder         : Lavc57.54.101 libvpx
  1031.     Side data:
  1032.       cpb: bitrate max/min/avg: 0/0/4500000 buffer size: 0 vbv_delay: -1
  1033.     Stream #0:1(eng): Audio: opus (libopus), 48000 Hz, stereo, flt, delay 312, padding 0, 96 kb/s (default)
  1034.     Metadata:
  1035.       HANDLER_NAME    : Apple Alias Data Handler
  1036.       TIMECODE        : 00:00:00:00
  1037.       DURATION        : 00:01:00.036000000
  1038.       encoder         : Lavc57.54.101 libopus
  1039. Stream mapping:
  1040.   Stream #0:0 -> #0:0 (ffv1 (native) -> vp8 (libvpx))
  1041.   Stream #0:1 -> #0:1 (vorbis (native) -> opus (libopus))
  1042. Press [q] to stop, [?] for help
  1043. frame= 3602 fps=5.8 q=0.0 Lsize=   32020kB time=00:01:00.05 bitrate=4367.7kbits/s speed=0.0967x
  1044. video:30298kB audio:684kB subtitle:0kB other streams:0kB global headers:0kB muxing overhead: 3.352940%
  1045.  
  1046. C:\Users\Casa\Desktop\test\Fallout4>"C:\media-autobuild_suite-master\local64\bin-video\ffmpeg.exe" -y -i C:\Users\Casa\Desktop\test\Fallout4\Fallout4.mkv -c:v libvpx -pass 1 -b:v 5M -threads 7 -speed 4 -colorspace "bt709" -auto-alt-ref 1 -lag-in-frames 25 -an -f null NUL
  1047. ffmpeg version N-81490-g2bc69cb-ga37e6dd+1 Copyright (c) 2000-2016 the FFmpeg developers
  1048.   built with gcc 6.1.0 (Rev1, Built by MSYS2 project)
  1049.   configuration:  --enable-avisynth --enable-libmp3lame --enable-libopus --enable-libvorbis --enable-libvpx --enable-libx264 --enable-libx265 --disable-w32threads --enable-decklink --enable-fontconfig --enable-frei0r --enable-libass --enable-libbluray --enable-libbs2b --enable-libcaca --enable-libfreetype --enable-libfribidi --enable-libgme --enable-libgsm --enable-libilbc --enable-libmfx --enable-libmodplug --enable-libopencore-amrnb --enable-libopencore-amrwb --enable-libopenjpeg --enable-librtmp --enable-libschroedinger --enable-libsoxr --enable-libspeex --enable-libtheora --enable-libtwolame --enable-libvidstab --enable-libvo-amrwbenc --enable-libwavpack --enable-libwebp --enable-libxavs --enable-libxvid --enable-libzimg --enable-openssl --enable-libsnappy --enable-gpl --enable-nvenc --enable-opencl --enable-opengl --enable-libcdio --enable-libfaac --enable-libfdk-aac --enable-libkvazaar --enable-librubberband --enable-libssh --enable-libtesseract --enable-libzvbi --enable-chromaprint --enable-libebur128 --enable-libopenh264 --enable-libopenmpt --enable-version3 --enable-nonfree --enable-filter=frei0r --disable-debug
  1050.   libavutil      55. 29.100 / 55. 29.100
  1051.   libavcodec     57. 54.101 / 57. 54.101
  1052.   libavformat    57. 48.101 / 57. 48.101
  1053.   libavdevice    57.  0.102 / 57.  0.102
  1054.   libavfilter     6. 57.100 /  6. 57.100
  1055.   libswscale      4.  1.100 /  4.  1.100
  1056.   libswresample   2.  1.100 /  2.  1.100
  1057.   libpostproc    54.  0.100 / 54.  0.100
  1058. Input #0, matroska,webm, from 'C:\Users\Casa\Desktop\test\Fallout4\Fallout4.mkv':
  1059.   Metadata:
  1060.     COMPATIBLE_BRANDS: qt
  1061.     MAJOR_BRAND     : qt
  1062.     MINOR_VERSION   : 537199360
  1063.     ENCODER         : Lavf57.48.101
  1064.   Duration: 00:01:00.04, start: 0.000000, bitrate: 1312107 kb/s
  1065.     Stream #0:0(eng): Video: ffv1 (FFV1 / 0x31564646), bgra, 1920x1080, SAR 1:1 DAR 16:9, 60 fps, 60 tbr, 1k tbn, 1k tbc (default)
  1066.     Metadata:
  1067.       HANDLER_NAME    : Apple Alias Data Handler
  1068.       TIMECODE        : 00:00:00:00
  1069.       ENCODER         : Lavc57.54.101 ffv1
  1070.       DURATION        : 00:01:00.037000000
  1071.     Stream #0:1(eng): Audio: vorbis, 48000 Hz, stereo, fltp (default)
  1072.     Metadata:
  1073.       HANDLER_NAME    : Apple Alias Data Handler
  1074.       TIMECODE        : 00:00:00:00
  1075.       ENCODER         : Lavc57.54.101 libvorbis
  1076.       DURATION        : 00:01:00.036000000
  1077. [libvpx @ 0000022309baf640] v1.6.0-353-g3a98508
  1078. [null @ 00000223098c9080] Using AVStream.codec to pass codec parameters to muxers is deprecated, use AVStream.codecpar instead.
  1079. Output #0, null, to 'NUL':
  1080.   Metadata:
  1081.     COMPATIBLE_BRANDS: qt
  1082.     MAJOR_BRAND     : qt
  1083.     MINOR_VERSION   : 537199360
  1084.     encoder         : Lavf57.48.101
  1085.     Stream #0:0(eng): Video: vp8 (libvpx), yuva420p(bt709/unknown/unknown), 1920x1080 [SAR 1:1 DAR 16:9], q=-1--1, 5000 kb/s, 60 fps, 60 tbn, 60 tbc (default)
  1086.     Metadata:
  1087.       HANDLER_NAME    : Apple Alias Data Handler
  1088.       TIMECODE        : 00:00:00:00
  1089.       DURATION        : 00:01:00.037000000
  1090.       encoder         : Lavc57.54.101 libvpx
  1091.     Side data:
  1092.       cpb: bitrate max/min/avg: 0/0/5000000 buffer size: 0 vbv_delay: -1
  1093. Stream mapping:
  1094.   Stream #0:0 -> #0:0 (ffv1 (native) -> vp8 (libvpx))
  1095. Press [q] to stop, [?] for help
  1096. frame= 3602 fps=7.9 q=0.0 Lsize=N/A time=00:00:00.00 bitrate=N/A speed=   0x
  1097. video:0kB audio:0kB subtitle:0kB other streams:0kB global headers:0kB muxing overhead: unknown
  1098. Output file is empty, nothing was encoded
  1099.  
  1100. C:\Users\Casa\Desktop\test\Fallout4>"C:\media-autobuild_suite-master\local64\bin-video\ffmpeg.exe" -y -i C:\Users\Casa\Desktop\test\Fallout4\Fallout4.mkv -c:v libvpx -pass 2 -b:v 5M -threads 7 -speed 2 -colorspace "bt709" -auto-alt-ref 1 -lag-in-frames 25 -f webm "C:\Users\Casa\Desktop\test\Fallout4\test_5.0_vp8.webm"
  1101. ffmpeg version N-81490-g2bc69cb-ga37e6dd+1 Copyright (c) 2000-2016 the FFmpeg developers
  1102.   built with gcc 6.1.0 (Rev1, Built by MSYS2 project)
  1103.   configuration:  --enable-avisynth --enable-libmp3lame --enable-libopus --enable-libvorbis --enable-libvpx --enable-libx264 --enable-libx265 --disable-w32threads --enable-decklink --enable-fontconfig --enable-frei0r --enable-libass --enable-libbluray --enable-libbs2b --enable-libcaca --enable-libfreetype --enable-libfribidi --enable-libgme --enable-libgsm --enable-libilbc --enable-libmfx --enable-libmodplug --enable-libopencore-amrnb --enable-libopencore-amrwb --enable-libopenjpeg --enable-librtmp --enable-libschroedinger --enable-libsoxr --enable-libspeex --enable-libtheora --enable-libtwolame --enable-libvidstab --enable-libvo-amrwbenc --enable-libwavpack --enable-libwebp --enable-libxavs --enable-libxvid --enable-libzimg --enable-openssl --enable-libsnappy --enable-gpl --enable-nvenc --enable-opencl --enable-opengl --enable-libcdio --enable-libfaac --enable-libfdk-aac --enable-libkvazaar --enable-librubberband --enable-libssh --enable-libtesseract --enable-libzvbi --enable-chromaprint --enable-libebur128 --enable-libopenh264 --enable-libopenmpt --enable-version3 --enable-nonfree --enable-filter=frei0r --disable-debug
  1104.   libavutil      55. 29.100 / 55. 29.100
  1105.   libavcodec     57. 54.101 / 57. 54.101
  1106.   libavformat    57. 48.101 / 57. 48.101
  1107.   libavdevice    57.  0.102 / 57.  0.102
  1108.   libavfilter     6. 57.100 /  6. 57.100
  1109.   libswscale      4.  1.100 /  4.  1.100
  1110.   libswresample   2.  1.100 /  2.  1.100
  1111.   libpostproc    54.  0.100 / 54.  0.100
  1112. Input #0, matroska,webm, from 'C:\Users\Casa\Desktop\test\Fallout4\Fallout4.mkv':
  1113.   Metadata:
  1114.     COMPATIBLE_BRANDS: qt
  1115.     MAJOR_BRAND     : qt
  1116.     MINOR_VERSION   : 537199360
  1117.     ENCODER         : Lavf57.48.101
  1118.   Duration: 00:01:00.04, start: 0.000000, bitrate: 1312107 kb/s
  1119.     Stream #0:0(eng): Video: ffv1 (FFV1 / 0x31564646), bgra, 1920x1080, SAR 1:1 DAR 16:9, 60 fps, 60 tbr, 1k tbn, 1k tbc (default)
  1120.     Metadata:
  1121.       HANDLER_NAME    : Apple Alias Data Handler
  1122.       TIMECODE        : 00:00:00:00
  1123.       ENCODER         : Lavc57.54.101 ffv1
  1124.       DURATION        : 00:01:00.037000000
  1125.     Stream #0:1(eng): Audio: vorbis, 48000 Hz, stereo, fltp (default)
  1126.     Metadata:
  1127.       HANDLER_NAME    : Apple Alias Data Handler
  1128.       TIMECODE        : 00:00:00:00
  1129.       ENCODER         : Lavc57.54.101 libvorbis
  1130.       DURATION        : 00:01:00.036000000
  1131. [libvpx @ 000001a72249cf20] v1.6.0-353-g3a98508
  1132. [libopus @ 000001a72249ef20] No bit rate set. Defaulting to 96000 bps.
  1133. [webm @ 000001a72249b280] Using AVStream.codec to pass codec parameters to muxers is deprecated, use AVStream.codecpar instead.
  1134.     Last message repeated 1 times
  1135. Output #0, webm, to 'C:\Users\Casa\Desktop\test\Fallout4\test_5.0_vp8.webm':
  1136.   Metadata:
  1137.     COMPATIBLE_BRANDS: qt
  1138.     MAJOR_BRAND     : qt
  1139.     MINOR_VERSION   : 537199360
  1140.     encoder         : Lavf57.48.101
  1141.     Stream #0:0(eng): Video: vp8 (libvpx), yuva420p(bt709/unknown/unknown), 1920x1080 [SAR 1:1 DAR 16:9], q=-1--1, 5000 kb/s, 60 fps, 1k tbn, 60 tbc (default)
  1142.     Metadata:
  1143.       HANDLER_NAME    : Apple Alias Data Handler
  1144.       TIMECODE        : 00:00:00:00
  1145.       DURATION        : 00:01:00.037000000
  1146.       encoder         : Lavc57.54.101 libvpx
  1147.     Side data:
  1148.       cpb: bitrate max/min/avg: 0/0/5000000 buffer size: 0 vbv_delay: -1
  1149.     Stream #0:1(eng): Audio: opus (libopus), 48000 Hz, stereo, flt, delay 312, padding 0, 96 kb/s (default)
  1150.     Metadata:
  1151.       HANDLER_NAME    : Apple Alias Data Handler
  1152.       TIMECODE        : 00:00:00:00
  1153.       DURATION        : 00:01:00.036000000
  1154.       encoder         : Lavc57.54.101 libopus
  1155. Stream mapping:
  1156.   Stream #0:0 -> #0:0 (ffv1 (native) -> vp8 (libvpx))
  1157.   Stream #0:1 -> #0:1 (vorbis (native) -> opus (libopus))
  1158. Press [q] to stop, [?] for help
  1159. frame= 3602 fps=5.7 q=0.0 Lsize=   35322kB time=00:01:00.05 bitrate=4818.0kbits/s speed=0.0958x
  1160. video:33557kB audio:684kB subtitle:0kB other streams:0kB global headers:0kB muxing overhead: 3.156468%
  1161.  
  1162. C:\Users\Casa\Desktop\test\Fallout4>pause
  1163. Premere un tasto per continuare . . .
RAW Paste Data
We use cookies for various purposes including analytics. By continuing to use Pastebin, you agree to our use of cookies as described in the Cookies Policy. OK, I Understand
 
Top