Advertisement
Guest User

capture_m2hd.ts info

a guest
Apr 3rd, 2014
88
Never
Not a member of Pastebin yet? Sign Up, it unlocks many cool features!
  1. General
  2. ID : 1 (0x1)
  3. Complete name : ...\capture_m2hd.ts
  4. Format : MPEG-TS
  5. File size : 21.7 MiB
  6. Duration : 30s 110ms
  7. Overall bit rate : 6 031 Kbps
  8.  
  9. Video
  10. ID : 1011 (0x3F3)
  11. Menu ID : 101 (0x65)
  12. Format : AVC
  13. Format/Info : Advanced Video Codec
  14. Format profile : High@L4.0
  15. Format settings, CABAC : Yes
  16. Format settings, ReFrames : 4 frames
  17. Codec ID : 27
  18. Duration : 29s 520ms
  19. Width : 1 440 pixels
  20. Height : 1 080 pixels
  21. Display aspect ratio : 16:9
  22. Frame rate : 25.000 fps
  23. Color space : YUV
  24. Chroma subsampling : 4:2:0
  25. Bit depth : 8 bits
  26. Scan type : MBAFF
  27. Color primaries : BT.709-5, BT.1361, IEC 61966-2-4, SMPTE RP177
  28. Transfer characteristics : BT.709-5, BT.1361
  29. Matrix coefficients : BT.709-5, BT.1361, IEC 61966-2-4 709, SMPTE RP177
  30.  
  31. Audio #1
  32. ID : 1012 (0x3F4)
  33. Menu ID : 101 (0x65)
  34. Format : MPEG Audio
  35. Format version : Version 1
  36. Format profile : Layer 2
  37. Mode : Joint stereo
  38. Codec ID : 3
  39. Duration : 30s 96ms
  40. Bit rate mode : Constant
  41. Bit rate : 128 Kbps
  42. Channel(s) : 2 channels
  43. Sampling rate : 48.0 KHz
  44. Compression mode : Lossy
  45. Delay relative to video : -651ms
  46. Stream size : 470 KiB (2%)
  47. Language : Hungarian
  48.  
  49. Audio #2
  50. ID : 1014 (0x3F6)
  51. Menu ID : 101 (0x65)
  52. Format : AC-3
  53. Format/Info : Audio Coding 3
  54. Mode extension : CM (complete main)
  55. Codec ID : 6
  56. Duration : 30s 112ms
  57. Bit rate mode : Constant
  58. Bit rate : 384 Kbps
  59. Channel(s) : 2 channels
  60. Channel positions : Front: L R
  61. Sampling rate : 48.0 KHz
  62. Bit depth : 16 bits
  63. Compression mode : Lossy
  64. Delay relative to video : -603ms
  65. Stream size : 1.38 MiB (6%)
  66. Language : Hungarian
  67.  
  68. Audio #3
  69. ID : 1016 (0x3F8)
  70. Menu ID : 101 (0x65)
  71. Format : AAC
  72. Format/Info : Advanced Audio Codec
  73. Format profile : HE-AAC / LC
  74. Muxing mode : LATM
  75. Codec ID : 17
  76. Duration : 29s 952ms
  77. Channel(s) : 2 channels
  78. Channel positions : Front: L R
  79. Sampling rate : 48.0 KHz / 24.0 KHz
  80. Compression mode : Lossy
  81. Delay relative to video : -303ms
  82. Language : Multiple languages
  83.  
  84. Text #1
  85. ID : 1003 (0x3EB)-100
  86. Menu ID : 101 (0x65)
  87. Format : Teletext
  88. Language : Hungarian
  89.  
  90. Text #2
  91. ID : 1003 (0x3EB)-222
  92. Menu ID : 101 (0x65)
  93. Format : Teletext Subtitle
  94. Language : Hungarian
Advertisement
RAW Paste Data Copied
Advertisement