daily pastebin goal
18%
SHARE
TWEET

[snahp.it]Incident.In.A.Ghostland.2018.Bluray.1080p.x264.DTS-HDMA.5.1-DTOne_snahp.it.mkv

iMN0 Jul 6th, 2018 54 Never
Not a member of Pastebin yet? Sign Up, it unlocks many cool features!
  1. General
  2. Unique ID                                : 317170066590371444165278070514743395849 (0xEE9CBB9D6E8C0769BDE5573971BE4609)
  3. Complete name                            : [snahp.it]Incident.In.A.Ghostland.2018.Bluray.1080p.x264.DTS-HDMA.5.1-DTOne_snahp.it.mkv
  4. Format                                   : Matroska
  5. Format version                           : Version 4 / Version 2
  6. File size                                : 8.59 GiB
  7. Duration                                 : 1 h 31 min
  8. Overall bit rate                         : 13.5 Mb/s
  9. Encoded date                             : UTC 2018-07-05 17:50:21
  10. Writing application                      : mkvmerge v24.0.0 ('Beyond The Pale') 64-bit
  11. Writing library                          : libebml v1.3.6 + libmatroska v1.4.9
  12.  
  13. Video
  14. ID                                       : 1
  15. Format                                   : AVC
  16. Format/Info                              : Advanced Video Codec
  17. Format profile                           : High@L4.1
  18. Format settings                          : CABAC / 5 Ref Frames
  19. Format settings, CABAC                   : Yes
  20. Format settings, ReFrames                : 5 frames
  21. Codec ID                                 : V_MPEG4/ISO/AVC
  22. Duration                                 : 1 h 31 min
  23. Bit rate                                 : 10 000 kb/s
  24. Width                                    : 1 920 pixels
  25. Height                                   : 800 pixels
  26. Display aspect ratio                     : 2.40:1
  27. Frame rate mode                          : Constant
  28. Frame rate                               : 24.000 FPS
  29. Color space                              : YUV
  30. Chroma subsampling                       : 4:2:0
  31. Bit depth                                : 8 bits
  32. Scan type                                : Progressive
  33. Bits/(Pixel*Frame)                       : 0.271
  34. Stream size                              : 6.37 GiB (74%)
  35. Writing library                          : x264 core 155 r2901 7d0ff22
  36. Encoding settings                        : cabac=1 / ref=5 / deblock=1:-2:-1 / analyse=0x3:0x133 / me=umh / subme=9 / psy=1 / psy_rd=1.00:0.15 / mixed_ref=1 / me_range=16 / chroma_me=1 / trellis=2 / 8x8dct=1 / cqm=0 / deadzone=21,11 / fast_pskip=1 / chroma_qp_offset=-3 / threads=25 / lookahead_threads=2 / sliced_threads=0 / nr=0 / decimate=1 / interlaced=0 / bluray_compat=0 / constrained_intra=0 / bframes=3 / b_pyramid=2 / b_adapt=2 / b_bias=0 / direct=3 / weightb=1 / open_gop=0 / weightp=2 / keyint=250 / keyint_min=24 / scenecut=40 / intra_refresh=0 / rc_lookahead=60 / rc=2pass / mbtree=1 / bitrate=10000 / ratetol=1.0 / qcomp=0.60 / qpmin=0 / qpmax=69 / qpstep=4 / cplxblur=20.0 / qblur=0.5 / ip_ratio=1.40 / aq=3:1.00
  37. Language                                 : English
  38. Default                                  : Yes
  39. Forced                                   : No
  40. Color range                              : Limited
  41. Color primaries                          : BT.709
  42. Transfer characteristics                 : BT.709
  43. Matrix coefficients                      : BT.709
  44.  
  45. Audio
  46. ID                                       : 2
  47. Format                                   : DTS
  48. Format/Info                              : Digital Theater Systems
  49. Format profile                           : MA / Core
  50. Codec ID                                 : A_DTS
  51. Duration                                 : 1 h 31 min
  52. Bit rate mode                            : Variable / Constant
  53. Bit rate                                 : 3 483 kb/s / 1 509 kb/s
  54. Channel(s)                               : 6 channels
  55. Channel positions                        : Front: L C R, Side: L R, LFE
  56. Sampling rate                            : 48.0 kHz
  57. Frame rate                               : 93.750 FPS (512 SPF)
  58. Bit depth                                : 24 bits
  59. Compression mode                         : Lossless / Lossy
  60. Stream size                              : 2.22 GiB (26%)
  61. Language                                 : English
  62. Default                                  : Yes
  63. Forced                                   : No
  64.  
  65. Menu
  66. 00:00:00.000                             : en:00:00:00.000
  67. 00:01:29.792                             : en:00:01:29.792
  68. 00:10:57.750                             : en:00:10:57.750
  69. 00:19:48.833                             : en:00:19:48.833
  70. 00:29:28.917                             : en:00:29:28.917
  71. 00:41:00.708                             : en:00:41:00.708
  72. 00:51:49.875                             : en:00:51:49.875
  73. 01:03:50.333                             : en:01:03:50.333
  74. 01:16:10.833                             : en:01:16:10.833
RAW Paste Data
We use cookies for various purposes including analytics. By continuing to use Pastebin, you agree to our use of cookies as described in the Cookies Policy. OK, I Understand
 
Top