Guest User

Untitled

a guest
Jul 17th, 2017
64
Never
Not a member of Pastebin yet? Sign Up, it unlocks many cool features!
  1. General
  2. Unique ID : 199342562668721006997205084006334130015 (0x95F7FB26F98AF3238602905BA3DCE75F)
  3. Complete name : C:\Users\batti\Desktop\Sleepless.2017.BDREMUX.1080i.ExKinoRay.mkv
  4. Format : Matroska
  5. Format version : Version 4 / Version 2
  6. File size : 14.3 GiB
  7. Duration : 1 h 31 min
  8. Overall bit rate mode : Variable
  9. Overall bit rate : 22.5 Mb/s
  10. Encoded date : UTC 2017-07-18 00:35:12
  11. Writing application : mkvmerge v13.0.0 ('The Juggler') 64bit
  12. Writing library : libebml v1.3.4 + libmatroska v1.4.5
  13.  
  14. Video
  15. ID : 1
  16. Format : AVC
  17. Format/Info : Advanced Video Codec
  18. Format profile : High@L4.1
  19. Format settings, CABAC : Yes
  20. Format settings, ReFrames : 4 frames
  21. Format settings, GOP : M=3, N=24
  22. Codec ID : V_MPEG4/ISO/AVC
  23. Duration : 1 h 31 min
  24. Bit rate mode : Variable
  25. Bit rate : 20.0 Mb/s
  26. Maximum bit rate : 35.0 Mb/s
  27. Width : 1 920 pixels
  28. Height : 1 080 pixels
  29. Display aspect ratio : 16:9
  30. Frame rate mode : Constant
  31. Frame rate : 25.000 FPS
  32. Standard : PAL
  33. Color space : YUV
  34. Chroma subsampling : 4:2:0
  35. Bit depth : 8 bits
  36. Scan type : MBAFF
  37. Scan type, store method : Interleaved fields
  38. Scan order : Top Field First
  39. Bits/(Pixel*Frame) : 0.386
  40. Stream size : 12.7 GiB (89%)
  41. Language : English
  42. Default : No
  43. Forced : No
  44. Color range : Limited
  45. Color primaries : BT.709
  46. Transfer characteristics : BT.709
  47. Matrix coefficients : BT.709
  48.  
  49. Audio #1
  50. ID : 2
  51. Format : AC-3
  52. Format/Info : Audio Coding 3
  53. Format settings, Endianness : Big
  54. Codec ID : A_AC3
  55. Duration : 1 h 30 min
  56. Bit rate mode : Constant
  57. Bit rate : 192 kb/s
  58. Channel(s) : 2 channels
  59. Channel positions : Front: L R
  60. Sampling rate : 48.0 kHz
  61. Frame rate : 31.250 FPS (1536 spf)
  62. Bit depth : 16 bits
  63. Compression mode : Lossy
  64. Stream size : 125 MiB (1%)
  65. Title : MVO
  66. Language : Russian
  67. Service kind : Complete Main
  68. Default : Yes
  69. Forced : No
  70.  
  71. Audio #2
  72. ID : 3
  73. Format : AC-3
  74. Format/Info : Audio Coding 3
  75. Format settings, Endianness : Big
  76. Codec ID : A_AC3
  77. Duration : 1 h 30 min
  78. Bit rate mode : Constant
  79. Bit rate : 384 kb/s
  80. Channel(s) : 6 channels
  81. Channel positions : Front: L C R, Side: L R, LFE
  82. Sampling rate : 48.0 kHz
  83. Frame rate : 31.250 FPS (1536 spf)
  84. Bit depth : 16 bits
  85. Compression mode : Lossy
  86. Stream size : 250 MiB (2%)
  87. Title : AVO
  88. Language : Russian
  89. Service kind : Complete Main
  90. Default : No
  91. Forced : No
  92.  
  93. Audio #3
  94. ID : 4
  95. Format : DTS
  96. Format/Info : Digital Theater Systems
  97. Format profile : MA / Core
  98. Mode : 16
  99. Format settings, Endianness : Big
  100. Codec ID : A_DTS
  101. Duration : 1 h 31 min
  102. Bit rate mode : Variable / Constant
  103. Bit rate : 1 982 kb/s / 1 509 kb/s
  104. Channel(s) : 6 channels
  105. Channel positions : Front: L C R, Side: L R, LFE
  106. Sampling rate : 48.0 kHz
  107. Frame rate : 93.750 FPS (512 spf)
  108. Bit depth : 16 bits
  109. Compression mode : Lossless / Lossy
  110. Stream size : 1.26 GiB (9%)
  111. Title : Original
  112. Language : English
  113. Default : No
  114. Forced : No
  115.  
  116. Menu
  117. 00:00:00.000 : en:Chapter 01
  118. 00:07:07.080 : en:Chapter 02
  119. 00:15:11.000 : en:Chapter 03
  120. 00:21:42.560 : en:Chapter 04
  121. 00:30:42.440 : en:Chapter 05
  122. 00:39:07.680 : en:Chapter 06
  123. 00:46:39.640 : en:Chapter 07
  124. 00:51:54.160 : en:Chapter 08
  125. 01:00:38.680 : en:Chapter 09
  126. 01:09:56.920 : en:Chapter 10
  127. 01:17:31.480 : en:Chapter 11
  128. 01:24:22.440 : en:Chapter 12
RAW Paste Data