Secasa

Untitled

Jun 4th, 2015
15
Never
Not a member of Pastebin yet? Sign Up, it unlocks many cool features!
  1. Format : Matroska
  2. Format version : Version 2
  3. File size : 13.8 GiB
  4. Duration : 2h 7mn
  5. Overall bit rate : 15.5 Mbps
  6. Encoded date : UTC 2015-06-03 05:36:11
  7. Writing application : mkvmerge v5.7.0 ('The Whirlwind') built on Jul 8 2012 20:08:51
  8. Writing library : libebml v1.2.3 + libmatroska v1.3.0
  9.  
  10. Video
  11. ID : 1
  12. Format : AVC
  13. Format/Info : Advanced Video Codec
  14. Format profile : High@L4.1
  15. Format settings, CABAC : Yes
  16. Format settings, ReFrames : 5 frames
  17. Codec ID : V_MPEG4/ISO/AVC
  18. Duration : 2h 7mn
  19. Bit rate : 13.5 Mbps
  20. Width : 1 920 pixels
  21. Height : 800 pixels
  22. Display aspect ratio : 2.40:1
  23. Frame rate mode : Constant
  24. Frame rate : 23.976 fps
  25. Color space : YUV
  26. Chroma subsampling : 4:2:0
  27. Bit depth : 8 bits
  28. Scan type : Progressive
  29. Bits/(Pixel*Frame) : 0.367
  30. Stream size : 11.8 GiB (85%)
  31. Writing library : x264 core 142 r2431+42 c69a006 tMod [8-bit@all X86_64]
  32. Encoding settings : cabac=1 / ref=5 / deblock=1:-3:-3 / analyse=0x3:0x133 / me=umh / subme=11 / psy=1 / fade_compensate=0.00 / psy_rd=0.95:0.05 / mixed_ref=1 / me_range=64 / chroma_me=1 / trellis=2 / 8x8dct=1 / cqm=0 / deadzone=21,11 / fast_pskip=0 / chroma_qp_offset=-3 / threads=12 / lookahead_threads=2 / sliced_threads=0 / nr=0 / decimate=0 / interlaced=0 / bluray_compat=0 / constrained_intra=0 / fgo=0 / bframes=8 / b_pyramid=2 / b_adapt=2 / b_bias=0 / direct=3 / weightb=1 / open_gop=0 / weightp=2 / keyint=250 / keyint_min=23 / scenecut=40 / intra_refresh=0 / rc_lookahead=100 / rc=2pass / mbtree=0 / bitrate=13500 / ratetol=1.0 / qcomp=0.70 / qpmin=0:0:0 / qpmax=69:69:69 / qpstep=4 / cplxblur=20.0 / qblur=0.5 / vbv_maxrate=50000 / vbv_bufsize=50000 / nal_hrd=none / filler=0 / ip_ratio=1.40 / pb_ratio=1.30 / aq=3:0.80 / aq-sensitivity=10.00 / aq-factor=1.00:1.00:1.00 / aq2=0 / aq3=0
  33. Language : English
  34. Default : Yes
  35. Forced : No
  36. Matrix coefficients : BT.709
  37. Color range : Limited
  38.  
  39. Audio #1
  40. ID : 2
  41. Format : AC-3
  42. Format/Info : Audio Coding 3
  43. Mode extension : CM (complete main)
  44. Format settings, Endianness : Big
  45. Codec ID : A_AC3
  46. Duration : 2h 7mn
  47. Bit rate mode : Constant
  48. Bit rate : 448 Kbps
  49. Channel(s) : 6 channels
  50. Channel positions : Front: L C R, Side: L R, LFE
  51. Sampling rate : 48.0 KHz
  52. Bit depth : 16 bits
  53. Compression mode : Lossy
  54. Stream size : 409 MiB (3%)
  55. Language : Spanish
  56. Default : No
  57. Forced : Yes
  58.  
  59. Audio #2
  60. ID : 3
  61. Format : DTS
  62. Format/Info : Digital Theater Systems
  63. Mode : 16
  64. Format settings, Endianness : Big
  65. Codec ID : A_DTS
  66. Duration : 2h 7mn
  67. Bit rate mode : Constant
  68. Bit rate : 1 510 Kbps
  69. Channel(s) : 6 channels
  70. Channel positions : Front: L C R, Side: L R, LFE
  71. Sampling rate : 48.0 KHz
  72. Bit depth : 24 bits
  73. Compression mode : Lossy
  74. Stream size : 1.35 GiB (10%)
  75. Language : English
  76. Default : Yes
  77. Forced : No
  78.  
  79. Text #1
  80. ID : 4
  81. Format : VobSub
  82. Muxing mode : zlib
  83. Codec ID : S_VOBSUB
  84. Codec ID/Info : The same subtitle format used on DVDs
  85. Title : For-Color
  86. Language : Spanish
  87. Default : Yes
  88. Forced : Yes
  89.  
  90. Text #2
  91. ID : 5
  92. Format : VobSub
  93. Muxing mode : zlib
  94. Codec ID : S_VOBSUB
  95. Codec ID/Info : The same subtitle format used on DVDs
  96. Title : Comp-Color
  97. Language : Spanish
  98. Default : No
  99. Forced : No
  100.  
  101. Text #3
  102. ID : 6
  103. Format : VobSub
  104. Muxing mode : zlib
  105. Codec ID : S_VOBSUB
  106. Codec ID/Info : The same subtitle format used on DVDs
  107. Title : Comp-Color
  108. Language : English
  109. Default : No
  110. Forced : No
  111.  
  112. Text #4
  113. ID : 7
  114. Format : UTF-8
  115. Codec ID : S_TEXT/UTF8
  116. Codec ID/Info : UTF-8 Plain Text
  117. Title : Forz-srt
  118. Language : Spanish
  119. Default : No
  120. Forced : No
  121.  
  122. Text #5
  123. ID : 8
  124. Format : UTF-8
  125. Codec ID : S_TEXT/UTF8
  126. Codec ID/Info : UTF-8 Plain Text
  127. Title : Comp-srt
  128. Language : Spanish
  129. Default : No
  130. Forced : No
  131.  
  132. Text #6
  133. ID : 9
  134. Format : UTF-8
  135. Codec ID : S_TEXT/UTF8
  136. Codec ID/Info : UTF-8 Plain Text
  137. Title : Comp-srt
  138. Language : English
  139. Default : No
  140. Forced : No
  141.  
  142. Menu
  143. 00:00:00.000 : en:00:00:00.000
  144. 00:08:45.024 : en:00:08:45.024
  145. 00:19:31.170 : en:00:19:31.170
  146. 00:31:32.974 : en:00:31:32.974
  147. 00:41:42.542 : en:00:41:42.542
  148. 00:49:35.639 : en:00:49:35.639
  149. 00:58:29.631 : en:00:58:29.631
  150. 01:09:20.031 : en:01:09:20.031
  151. 01:19:07.201 : en:01:19:07.201
  152. 01:29:09.427 : en:01:29:09.427
  153. 01:36:08.513 : en:01:36:08.513
  154. 01:43:26.575 : en:01:43:26.575
  155. 01:52:58.772 : en:01:52:58.772
  156. 01:57:59.489 : en:01:57:59.489
RAW Paste Data