SHARE
TWEET

Untitled

a guest Aug 12th, 2017 50 Never
Not a member of Pastebin yet? Sign Up, it unlocks many cool features!
  1. DISC INFO:
  2.  
  3. Disc Title:     Tutankhamon.2010.1080i.Blu-ray.ITA.AVC.TrueHD.5.1-EbP
  4. Disc Size:      47.162.783.604 bytes
  5. Protection:     AACS
  6. BD-Java:        No
  7. BDInfo:         0.5.6
  8.  
  9. PLAYLIST REPORT:
  10.  
  11. Name:                   00001.MPLS
  12. Length:                 1:27:12 (h:m:s)
  13. Size:                   23.205.365.760 bytes
  14. Total Bitrate:          35,48 Mbps
  15.  
  16. VIDEO:
  17.  
  18. Codec                   Bitrate             Description    
  19. -----                   -------             -----------    
  20. MPEG-4 AVC Video        27995 kbps          1080i / 25 fps / 16:9 / High Profile 4.1
  21.  
  22. AUDIO:
  23.  
  24. Codec                           Language        Bitrate         Description    
  25. -----                           --------        -------         -----------    
  26. Dolby TrueHD Audio              English         1644 kbps       5.1 / 48 kHz / 1644 kbps / 16-bit (AC3 Embedded: 5.1 / 48 kHz / 448 kbps)
  27. Dolby TrueHD Audio              Italian         1453 kbps       5.1 / 48 kHz / 1453 kbps / 16-bit (AC3 Embedded: 5.1 / 48 kHz / 448 kbps)
  28.  
  29. SUBTITLES:
  30.  
  31. Codec                           Language        Bitrate         Description    
  32. -----                           --------        -------         -----------    
  33. Presentation Graphics           English         44,812 kbps                    
  34. Presentation Graphics           Italian         45,387 kbps                    
  35.  
  36. FILES:
  37.  
  38. Name            Time In         Length          Size            Total Bitrate  
  39. ----            -------         ------          ----            -------------  
  40. 00014.M2TS      0:00:00.000     0:11:28.799     3.082.076.160   35.796          
  41. 00018.M2TS      0:11:28.799     0:10:41.840     2.825.803.776   35.221          
  42. 00019.M2TS      0:22:10.639     0:10:20.919     2.745.655.296   35.375          
  43. 00020.M2TS      0:32:31.559     0:08:56.880     2.386.249.728   35.557          
  44. 00021.M2TS      0:41:28.440     0:05:13.879     1.373.736.960   35.013          
  45. 00022.M2TS      0:46:42.319     0:08:38.520     2.319.673.344   35.789          
  46. 00023.M2TS      0:55:20.840     0:07:22.160     1.972.070.400   35.681          
  47. 00024.M2TS      1:02:43.000     0:05:51.919     1.561.466.880   35.496          
  48. 00025.M2TS      1:08:34.920     0:06:49.360     1.814.685.696   35.464          
  49. 00026.M2TS      1:15:24.280     0:07:27.959     1.979.793.408   35.357          
  50. 00027.M2TS      1:22:52.240     0:04:20.040     1.144.154.112   35.199
RAW Paste Data
Top