SHARE
TWEET

The.Beach.Bum.2019.1080p.BluRay.x264-DRONES

a guest Jun 12th, 2019 94 Never
Not a member of Pastebin yet? Sign Up, it unlocks many cool features!
  1. General
  2. Unique ID                                : 138200459407521268980462365133169843764 (0x67F870B829AF4787739C5B67AA6D5E34)
  3. Complete name                            : The.Beach.Bum.2019.1080p.BluRay.x264-DRONES.mkv
  4. Format                                   : Matroska
  5. Format version                           : Version 4
  6. File size                                : 7.65 GiB
  7. Duration                                 : 1 h 34 min
  8. Overall bit rate                         : 11.6 Mb/s
  9. Encoded date                             : UTC 2019-06-10 22:18:46
  10. Writing application                      : mkvmerge v22.0.0 ('At The End Of The World') 64-bit
  11. Writing library                          : libebml v1.3.5 + libmatroska v1.4.8
  12.  
  13. Video
  14. ID                                       : 1
  15. Format                                   : AVC
  16. Format/Info                              : Advanced Video Codec
  17. Format profile                           : High@L4.1
  18. Format settings                          : CABAC / 5 Ref Frames
  19. Format settings, CABAC                   : Yes
  20. Format settings, Reference frames        : 5 frames
  21. Codec ID                                 : V_MPEG4/ISO/AVC
  22. Duration                                 : 1 h 34 min
  23. Bit rate                                 : 10.1 Mb/s
  24. Width                                    : 1 920 pixels
  25. Height                                   : 808 pixels
  26. Display aspect ratio                     : 2.40:1
  27. Frame rate mode                          : Constant
  28. Frame rate                               : 23.976 (24000/1001) FPS
  29. Color space                              : YUV
  30. Chroma subsampling                       : 4:2:0
  31. Bit depth                                : 8 bits
  32. Scan type                                : Progressive
  33. Bits/(Pixel*Frame)                       : 0.270
  34. Stream size                              : 6.65 GiB (87%)
  35. Writing library                          : x264 core 157 r2969 d4099dd
  36. Encoding settings                        : cabac=1 / ref=5 / deblock=1:-3:-3 / analyse=0x3:0x133 / me=umh / subme=8 / psy=1 / psy_rd=1.00:0.00 / mixed_ref=1 / me_range=16 / chroma_me=1 / trellis=1 / 8x8dct=1 / cqm=0 / deadzone=21,11 / fast_pskip=0 / chroma_qp_offset=-2 / threads=25 / lookahead_threads=4 / sliced_threads=0 / nr=0 / decimate=1 / interlaced=0 / bluray_compat=0 / constrained_intra=0 / bframes=3 / b_pyramid=2 / b_adapt=1 / b_bias=0 / direct=3 / weightb=1 / open_gop=0 / weightp=2 / keyint=250 / keyint_min=23 / scenecut=40 / intra_refresh=0 / rc_lookahead=50 / rc=2pass / mbtree=1 / bitrate=10059 / ratetol=1.0 / qcomp=0.60 / qpmin=0 / qpmax=69 / qpstep=4 / cplxblur=20.0 / qblur=0.5 / vbv_maxrate=62500 / vbv_bufsize=78125 / nal_hrd=none / filler=0 / ip_ratio=1.40 / aq=1:1.00
  37. Default                                  : Yes
  38. Forced                                   : No
  39.  
  40. Audio
  41. ID                                       : 2
  42. Format                                   : DTS
  43. Format/Info                              : Digital Theater Systems
  44. Codec ID                                 : A_DTS
  45. Duration                                 : 1 h 34 min
  46. Bit rate mode                            : Constant
  47. Bit rate                                 : 1 509 kb/s
  48. Channel(s)                               : 6 channels
  49. Channel layout                           : C L R Ls Rs LFE
  50. Sampling rate                            : 48.0 kHz
  51. Frame rate                               : 93.750 FPS (512 SPF)
  52. Bit depth                                : 24 bits
  53. Compression mode                         : Lossy
  54. Stream size                              : 1 022 MiB (13%)
  55. Language                                 : English
  56. Default                                  : Yes
  57. Forced                                   : No
  58.  
  59. Menu
  60. 00:00:00.000                             : en:00:00:00.000
  61. 00:09:30.570                             : en:00:09:30.570
  62. 00:21:07.224                             : en:00:21:07.224
  63. 00:31:56.998                             : en:00:31:56.998
  64. 00:40:55.870                             : en:00:40:55.870
  65. 00:51:46.770                             : en:00:51:46.770
  66. 01:07:11.027                             : en:01:07:11.027
  67. 01:29:03.088                             : en:01:29:03.088
RAW Paste Data
We use cookies for various purposes including analytics. By continuing to use Pastebin, you agree to our use of cookies as described in the Cookies Policy. OK, I Understand
Not a member of Pastebin yet?
Sign Up, it unlocks many cool features!
 
Top