SHARE
TWEET

Assimilate BluRay 1080p

a guest Jan 22nd, 2020 66 Never
Not a member of Pastebin yet? Sign Up, it unlocks many cool features!
  1. General
  2. Unique ID                   : 6432492522217753522757743296207247557 (0x4D6DA5DFB82D9F1612A83EC10E5D8C5)
  3. Complete name               : E:\Assimilate.2019.1080p.BluRay.x264\Assimilate.2019.1080p.BluRay.x264.mkv
  4. Format                      : Matroska
  5. Format version              : Version 4
  6. File size                   : 2.18 GiB
  7. Duration                    : 1 h 33 min
  8. Overall bit rate            : 3 334 kb/s
  9. Movie name                  : Assimilate BR-RIP / Assimilate BR-RIP
  10. Encoded date                : UTC 2020-01-11 06:23:43
  11. Writing application         : mkvmerge v30.1.0 ('Forever And More') 32-bit
  12. Writing library             : libebml v1.3.6 + libmatroska v1.4.9
  13. Copyright                   : HARSHLEARNER
  14.  
  15. Video
  16. ID                          : 1
  17. Format                      : AVC
  18. Format/Info                 : Advanced Video Codec
  19. Format profile              : High@L4.1
  20. Format settings             : CABAC / 4 Ref Frames
  21. Format settings, CABAC      : Yes
  22. Format settings, ReFrames   : 4 frames
  23. Codec ID                    : V_MPEG4/ISO/AVC
  24. Duration                    : 1 h 33 min
  25. Bit rate                    : 2 500 kb/s
  26. Width                       : 1 920 pixels
  27. Height                      : 1 016 pixels
  28. Display aspect ratio        : 1.890
  29. Frame rate mode             : Constant
  30. Frame rate                  : 23.976 (24000/1001) FPS
  31. Original frame rate         : 23.976 (23976/1000) FPS
  32. Color space                 : YUV
  33. Chroma subsampling          : 4:2:0
  34. Bit depth                   : 8 bits
  35. Scan type                   : Progressive
  36. Bits/(Pixel*Frame)          : 0.053
  37. Stream size                 : 1.63 GiB (75%)
  38. Title                       : Assimilate
  39. Writing library             : x264 core 152 r2851M ba24899
  40. Language                    : English
  41. Default                     : Yes
  42. Forced                      : No
  43.  
  44. Audio #1
  45. ID                          : 2
  46. Format                      : AC-3
  47. Format/Info                 : Audio Coding 3
  48. Commercial name             : Dolby Digital
  49. Codec ID                    : A_AC3
  50. Duration                    : 1 h 33 min
  51. Bit rate mode               : Constant
  52. Bit rate                    : 448 kb/s
  53. Channel(s)                  : 6 channels
  54. Channel layout              : L R C LFE Ls Rs
  55. Sampling rate               : 48.0 kHz
  56. Frame rate                  : 31.250 FPS (1536 SPF)
  57. Bit depth                   : 16 bits
  58. Compression mode            : Lossy
  59. Stream size                 : 300 MiB (13%)
  60. Language                    : English
  61. Service kind                : Complete Main
  62. Default                     : No
  63. Forced                      : No
  64.  
  65. Audio #2
  66. ID                          : 3
  67. Format                      : AC-3
  68. Format/Info                 : Audio Coding 3
  69. Commercial name             : Dolby Digital
  70. Codec ID                    : A_AC3
  71. Duration                    : 1 h 33 min
  72. Bit rate mode               : Constant
  73. Bit rate                    : 384 kb/s
  74. Channel(s)                  : 6 channels
  75. Channel layout              : L R C LFE Ls Rs
  76. Sampling rate               : 48.0 kHz
  77. Frame rate                  : 31.250 FPS (1536 SPF)
  78. Bit depth                   : 16 bits
  79. Compression mode            : Lossy
  80. Delay relative to video     : 14 ms
  81. Stream size                 : 257 MiB (12%)
  82. Language                    : Spanish
  83. Service kind                : Complete Main
  84. Default                     : Yes
  85. Forced                      : Yes
  86.  
  87. Text #1
  88. ID                          : 4
  89. Format                      : UTF-8
  90. Codec ID                    : S_TEXT/UTF8
  91. Codec ID/Info               : UTF-8 Plain Text
  92. Duration                    : 1 h 33 min
  93. Bit rate                    : 35 b/s
  94. Count of elements           : 951
  95. Stream size                 : 24.2 KiB (0%)
  96. Language                    : English
  97. Default                     : No
  98. Forced                      : No
  99.  
  100. Text #2
  101. ID                          : 5
  102. Format                      : UTF-8
  103. Codec ID                    : S_TEXT/UTF8
  104. Codec ID/Info               : UTF-8 Plain Text
  105. Duration                    : 1 h 27 min
  106. Bit rate                    : 36 b/s
  107. Count of elements           : 825
  108. Stream size                 : 23.7 KiB (0%)
  109. Language                    : Spanish
  110. Default                     : Yes
  111. Forced                      : Yes
  112.  
  113. Menu
  114. 00:00:00.000                : :Chapter 01
  115. 00:10:15.907                : :Chapter 02
  116. 00:19:49.772                : :Chapter 03
  117. 00:29:58.547                : :Chapter 04
  118. 00:39:10.265                : :Chapter 05
  119. 00:50:36.784                : :Chapter 06
  120. 00:59:36.990                : :Chapter 07
  121. 01:10:52.957                : :Chapter 08
  122. 01:18:58.567                : :Chapter 09
  123. 01:28:37.354                : :Chapter 10
RAW Paste Data
We use cookies for various purposes including analytics. By continuing to use Pastebin, you agree to our use of cookies as described in the Cookies Policy. OK, I Understand
Top