SHARE
TWEET

Legends.of.the.Fall.1994.1080p.BluRay.REMUX.AVC.DTS-HD.MA.5.1-EPSiLON

a guest Jun 13th, 2019 19 Never
Not a member of Pastebin yet? Sign Up, it unlocks many cool features!
  1. General
  2. Complete name                            : Legends.of.the.Fall.1994.1080p.BluRay.REMUX.AVC.DTS-HD.MA.5.1-EPSiLON.mkv
  3. Format                                   : Matroska
  4. Format version                           : Version 4
  5. File size                                : 30.0 GiB
  6. Duration                                 : 2 h 12 min
  7. Overall bit rate mode                    : Variable
  8. Overall bit rate                         : 32.3 Mb/s
  9. Encoded date                             : UTC 2019-02-07 06:31:53
  10. Writing application                      : mkvmerge v30.1.0 ('Forever And More') 64-bit
  11. Writing library                          : libebml v1.3.6 + libmatroska v1.4.9
  12. IMDB                                     : tt0110322
  13. TMDB                                     : movie/4476
  14.  
  15. Video
  16. ID                                       : 1
  17. Format                                   : AVC
  18. Format/Info                              : Advanced Video Codec
  19. Format profile                           : High@L4.1
  20. Format settings                          : CABAC / 2 Ref Frames
  21. Format settings, CABAC                   : Yes
  22. Format settings, Reference frames        : 2 frames
  23. Format settings, GOP                     : M=1, N=10
  24. Codec ID                                 : V_MPEG4/ISO/AVC
  25. Duration                                 : 2 h 12 min
  26. Bit rate mode                            : Variable
  27. Bit rate                                 : 26.9 Mb/s
  28. Width                                    : 1 920 pixels
  29. Height                                   : 1 080 pixels
  30. Display aspect ratio                     : 16:9
  31. Frame rate mode                          : Constant
  32. Frame rate                               : 23.976 (24000/1001) FPS
  33. Color space                              : YUV
  34. Chroma subsampling                       : 4:2:0
  35. Bit depth                                : 8 bits
  36. Scan type                                : Progressive
  37. Bits/(Pixel*Frame)                       : 0.542
  38. Stream size                              : 25.0 GiB (83%)
  39. Title                                    : MPEG-4 AVC Video / 26926 kbps / 1080p / 23,976 fps / 16:9 / High Profile 4.1
  40. Language                                 : English
  41. Default                                  : Yes
  42. Forced                                   : No
  43.  
  44. Audio #1
  45. ID                                       : 2
  46. Format                                   : DTS XLL
  47. Format/Info                              : Digital Theater Systems
  48. Commercial name                          : DTS-HD Master Audio
  49. Codec ID                                 : A_DTS
  50. Duration                                 : 2 h 12 min
  51. Bit rate mode                            : Variable
  52. Bit rate                                 : 3 724 kb/s
  53. Channel(s)                               : 6 channels
  54. Channel layout                           : C L R Ls Rs LFE
  55. Sampling rate                            : 48.0 kHz
  56. Frame rate                               : 93.750 FPS (512 SPF)
  57. Bit depth                                : 24 bits
  58. Compression mode                         : Lossless
  59. Stream size                              : 3.45 GiB (12%)
  60. Title                                    : DTS-HD Master Audio / 5.1 / 48 kHz / 3724 kbps / 24-bit
  61. Language                                 : English
  62. Default                                  : Yes
  63. Forced                                   : No
  64.  
  65. Audio #2
  66. ID                                       : 3
  67. Format                                   : AC-3
  68. Format/Info                              : Audio Coding 3
  69. Commercial name                          : Dolby Digital
  70. Codec ID                                 : A_AC3
  71. Duration                                 : 2 h 12 min
  72. Bit rate mode                            : Constant
  73. Bit rate                                 : 192 kb/s
  74. Channel(s)                               : 2 channels
  75. Channel layout                           : L R
  76. Sampling rate                            : 48.0 kHz
  77. Frame rate                               : 31.250 FPS (1536 SPF)
  78. Bit depth                                : 16 bits
  79. Compression mode                         : Lossy
  80. Stream size                              : 182 MiB (1%)
  81. Title                                    : Commentary by director Edward Zwick and actor Brad Pitt
  82. Language                                 : English
  83. Service kind                             : Complete Main
  84. Default                                  : No
  85. Forced                                   : No
  86.  
  87. Audio #3
  88. ID                                       : 4
  89. Format                                   : AC-3
  90. Format/Info                              : Audio Coding 3
  91. Commercial name                          : Dolby Digital
  92. Codec ID                                 : A_AC3
  93. Duration                                 : 2 h 12 min
  94. Bit rate mode                            : Constant
  95. Bit rate                                 : 192 kb/s
  96. Channel(s)                               : 2 channels
  97. Channel layout                           : L R
  98. Sampling rate                            : 48.0 kHz
  99. Frame rate                               : 31.250 FPS (1536 SPF)
  100. Bit depth                                : 16 bits
  101. Compression mode                         : Lossy
  102. Stream size                              : 182 MiB (1%)
  103. Title                                    : Commentary by cinematographer John Toll and production designer Lilly Kilvert
  104. Language                                 : English
  105. Service kind                             : Complete Main
  106. Default                                  : No
  107. Forced                                   : No
  108.  
  109. Text #1
  110. ID                                       : 5
  111. Format                                   : PGS
  112. Codec ID                                 : S_HDMV/PGS
  113. Codec ID/Info                            : Picture based subtitle format used on BDs/HD-DVDs
  114. Duration                                 : 2 h 6 min
  115. Bit rate                                 : 24.8 kb/s
  116. Count of elements                        : 2077
  117. Stream size                              : 22.5 MiB (0%)
  118. Language                                 : English
  119. Default                                  : No
  120. Forced                                   : No
  121.  
  122. Text #2
  123. ID                                       : 6
  124. Format                                   : PGS
  125. Codec ID                                 : S_HDMV/PGS
  126. Codec ID/Info                            : Picture based subtitle format used on BDs/HD-DVDs
  127. Duration                                 : 2 h 7 min
  128. Bit rate                                 : 22.8 kb/s
  129. Count of elements                        : 2717
  130. Stream size                              : 20.7 MiB (0%)
  131. Title                                    : SDH
  132. Language                                 : English
  133. Default                                  : No
  134. Forced                                   : No
  135.  
  136. Text #3
  137. ID                                       : 7
  138. Format                                   : PGS
  139. Codec ID                                 : S_HDMV/PGS
  140. Codec ID/Info                            : Picture based subtitle format used on BDs/HD-DVDs
  141. Duration                                 : 2 h 6 min
  142. Bit rate                                 : 12.3 kb/s
  143. Count of elements                        : 1909
  144. Stream size                              : 11.1 MiB (0%)
  145. Language                                 : Arabic
  146. Default                                  : No
  147. Forced                                   : No
  148.  
  149. Text #4
  150. ID                                       : 8
  151. Format                                   : PGS
  152. Codec ID                                 : S_HDMV/PGS
  153. Codec ID/Info                            : Picture based subtitle format used on BDs/HD-DVDs
  154. Duration                                 : 2 h 6 min
  155. Bit rate                                 : 22.2 kb/s
  156. Count of elements                        : 2057
  157. Stream size                              : 20.1 MiB (0%)
  158. Language                                 : Bulgarian
  159. Default                                  : No
  160. Forced                                   : No
  161.  
  162. Text #5
  163. ID                                       : 9
  164. Format                                   : PGS
  165. Codec ID                                 : S_HDMV/PGS
  166. Codec ID/Info                            : Picture based subtitle format used on BDs/HD-DVDs
  167. Duration                                 : 2 h 7 min
  168. Bit rate                                 : 17.2 kb/s
  169. Count of elements                        : 2370
  170. Stream size                              : 15.7 MiB (0%)
  171. Language                                 : Chinese
  172. Default                                  : No
  173. Forced                                   : No
  174.  
  175. Text #6
  176. ID                                       : 10
  177. Format                                   : PGS
  178. Codec ID                                 : S_HDMV/PGS
  179. Codec ID/Info                            : Picture based subtitle format used on BDs/HD-DVDs
  180. Duration                                 : 2 h 6 min
  181. Bit rate                                 : 22.1 kb/s
  182. Count of elements                        : 2100
  183. Stream size                              : 20.0 MiB (0%)
  184. Language                                 : Croatian
  185. Default                                  : No
  186. Forced                                   : No
  187.  
  188. Text #7
  189. ID                                       : 11
  190. Format                                   : PGS
  191. Codec ID                                 : S_HDMV/PGS
  192. Codec ID/Info                            : Picture based subtitle format used on BDs/HD-DVDs
  193. Duration                                 : 2 h 12 min
  194. Bit rate                                 : 17.1 kb/s
  195. Count of elements                        : 1503
  196. Stream size                              : 16.2 MiB (0%)
  197. Language                                 : Czech
  198. Default                                  : No
  199. Forced                                   : No
  200.  
  201. Text #8
  202. ID                                       : 12
  203. Format                                   : PGS
  204. Codec ID                                 : S_HDMV/PGS
  205. Codec ID/Info                            : Picture based subtitle format used on BDs/HD-DVDs
  206. Duration                                 : 2 h 12 min
  207. Bit rate                                 : 20.6 kb/s
  208. Count of elements                        : 1502
  209. Stream size                              : 19.5 MiB (0%)
  210. Language                                 : French
  211. Default                                  : No
  212. Forced                                   : No
  213.  
  214. Text #9
  215. ID                                       : 13
  216. Format                                   : PGS
  217. Codec ID                                 : S_HDMV/PGS
  218. Codec ID/Info                            : Picture based subtitle format used on BDs/HD-DVDs
  219. Duration                                 : 2 h 7 min
  220. Bit rate                                 : 20.2 kb/s
  221. Count of elements                        : 1482
  222. Stream size                              : 18.4 MiB (0%)
  223. Language                                 : Danish
  224. Default                                  : No
  225. Forced                                   : No
  226.  
  227. Text #10
  228. ID                                       : 14
  229. Format                                   : PGS
  230. Codec ID                                 : S_HDMV/PGS
  231. Codec ID/Info                            : Picture based subtitle format used on BDs/HD-DVDs
  232. Duration                                 : 2 h 7 min
  233. Bit rate                                 : 20.0 kb/s
  234. Count of elements                        : 1506
  235. Stream size                              : 18.2 MiB (0%)
  236. Language                                 : Dutch
  237. Default                                  : No
  238. Forced                                   : No
  239.  
  240. Text #11
  241. ID                                       : 15
  242. Format                                   : PGS
  243. Codec ID                                 : S_HDMV/PGS
  244. Codec ID/Info                            : Picture based subtitle format used on BDs/HD-DVDs
  245. Duration                                 : 2 h 7 min
  246. Bit rate                                 : 21.1 kb/s
  247. Count of elements                        : 1502
  248. Stream size                              : 19.2 MiB (0%)
  249. Language                                 : Finnish
  250. Default                                  : No
  251. Forced                                   : No
  252.  
  253. Text #12
  254. ID                                       : 16
  255. Format                                   : PGS
  256. Codec ID                                 : S_HDMV/PGS
  257. Codec ID/Info                            : Picture based subtitle format used on BDs/HD-DVDs
  258. Duration                                 : 2 h 7 min
  259. Bit rate                                 : 20.7 kb/s
  260. Count of elements                        : 1502
  261. Stream size                              : 18.8 MiB (0%)
  262. Language                                 : German
  263. Default                                  : No
  264. Forced                                   : No
  265.  
  266. Text #13
  267. ID                                       : 17
  268. Format                                   : PGS
  269. Codec ID                                 : S_HDMV/PGS
  270. Codec ID/Info                            : Picture based subtitle format used on BDs/HD-DVDs
  271. Duration                                 : 2 h 7 min
  272. Bit rate                                 : 21.6 kb/s
  273. Count of elements                        : 1508
  274. Stream size                              : 19.6 MiB (0%)
  275. Language                                 : Greek
  276. Default                                  : No
  277. Forced                                   : No
  278.  
  279. Text #14
  280. ID                                       : 18
  281. Format                                   : PGS
  282. Codec ID                                 : S_HDMV/PGS
  283. Codec ID/Info                            : Picture based subtitle format used on BDs/HD-DVDs
  284. Duration                                 : 2 h 6 min
  285. Bit rate                                 : 16.4 kb/s
  286. Count of elements                        : 1895
  287. Stream size                              : 14.9 MiB (0%)
  288. Language                                 : Hindi
  289. Default                                  : No
  290. Forced                                   : No
  291.  
  292. Text #15
  293. ID                                       : 19
  294. Format                                   : PGS
  295. Codec ID                                 : S_HDMV/PGS
  296. Codec ID/Info                            : Picture based subtitle format used on BDs/HD-DVDs
  297. Duration                                 : 2 h 6 min
  298. Bit rate                                 : 18.8 kb/s
  299. Count of elements                        : 1882
  300. Stream size                              : 17.1 MiB (0%)
  301. Language                                 : Hungarian
  302. Default                                  : No
  303. Forced                                   : No
  304.  
  305. Text #16
  306. ID                                       : 20
  307. Format                                   : PGS
  308. Codec ID                                 : S_HDMV/PGS
  309. Codec ID/Info                            : Picture based subtitle format used on BDs/HD-DVDs
  310. Duration                                 : 2 h 7 min
  311. Bit rate                                 : 20.3 kb/s
  312. Count of elements                        : 1504
  313. Stream size                              : 18.4 MiB (0%)
  314. Language                                 : Icelandic
  315. Default                                  : No
  316. Forced                                   : No
  317.  
  318. Text #17
  319. ID                                       : 21
  320. Format                                   : PGS
  321. Codec ID                                 : S_HDMV/PGS
  322. Codec ID/Info                            : Picture based subtitle format used on BDs/HD-DVDs
  323. Duration                                 : 2 h 6 min
  324. Bit rate                                 : 22.4 kb/s
  325. Count of elements                        : 1461
  326. Stream size                              : 20.3 MiB (0%)
  327. Language                                 : Indonesian
  328. Default                                  : No
  329. Forced                                   : No
  330.  
  331. Text #18
  332. ID                                       : 22
  333. Format                                   : PGS
  334. Codec ID                                 : S_HDMV/PGS
  335. Codec ID/Info                            : Picture based subtitle format used on BDs/HD-DVDs
  336. Duration                                 : 2 h 6 min
  337. Bit rate                                 : 16.4 kb/s
  338. Count of elements                        : 2031
  339. Stream size                              : 14.9 MiB (0%)
  340. Language                                 : Japanese
  341. Default                                  : No
  342. Forced                                   : No
  343.  
  344. Text #19
  345. ID                                       : 23
  346. Format                                   : PGS
  347. Codec ID                                 : S_HDMV/PGS
  348. Codec ID/Info                            : Picture based subtitle format used on BDs/HD-DVDs
  349. Duration                                 : 2 h 7 min
  350. Bit rate                                 : 13.6 kb/s
  351. Count of elements                        : 2132
  352. Stream size                              : 12.3 MiB (0%)
  353. Language                                 : Korean
  354. Default                                  : No
  355. Forced                                   : No
  356.  
  357. Text #20
  358. ID                                       : 24
  359. Format                                   : PGS
  360. Codec ID                                 : S_HDMV/PGS
  361. Codec ID/Info                            : Picture based subtitle format used on BDs/HD-DVDs
  362. Duration                                 : 2 h 6 min
  363. Bit rate                                 : 19.3 kb/s
  364. Count of elements                        : 1520
  365. Stream size                              : 17.5 MiB (0%)
  366. Language                                 : Norwegian
  367. Default                                  : No
  368. Forced                                   : No
  369.  
  370. Text #21
  371. ID                                       : 25
  372. Format                                   : PGS
  373. Codec ID                                 : S_HDMV/PGS
  374. Codec ID/Info                            : Picture based subtitle format used on BDs/HD-DVDs
  375. Duration                                 : 2 h 12 min
  376. Bit rate                                 : 18.8 kb/s
  377. Count of elements                        : 1503
  378. Stream size                              : 17.7 MiB (0%)
  379. Language                                 : Polish
  380. Default                                  : No
  381. Forced                                   : No
  382.  
  383. Text #22
  384. ID                                       : 26
  385. Format                                   : PGS
  386. Codec ID                                 : S_HDMV/PGS
  387. Codec ID/Info                            : Picture based subtitle format used on BDs/HD-DVDs
  388. Duration                                 : 2 h 7 min
  389. Bit rate                                 : 19.6 kb/s
  390. Count of elements                        : 1504
  391. Stream size                              : 17.8 MiB (0%)
  392. Language                                 : Portuguese
  393. Default                                  : No
  394. Forced                                   : No
  395.  
  396. Text #23
  397. ID                                       : 27
  398. Format                                   : PGS
  399. Codec ID                                 : S_HDMV/PGS
  400. Codec ID/Info                            : Picture based subtitle format used on BDs/HD-DVDs
  401. Duration                                 : 2 h 7 min
  402. Bit rate                                 : 22.8 kb/s
  403. Count of elements                        : 2100
  404. Stream size                              : 20.7 MiB (0%)
  405. Language                                 : Romanian
  406. Default                                  : No
  407. Forced                                   : No
  408.  
  409. Text #24
  410. ID                                       : 28
  411. Format                                   : PGS
  412. Codec ID                                 : S_HDMV/PGS
  413. Codec ID/Info                            : Picture based subtitle format used on BDs/HD-DVDs
  414. Duration                                 : 2 h 6 min
  415. Bit rate                                 : 23.1 kb/s
  416. Count of elements                        : 2100
  417. Stream size                              : 21.0 MiB (0%)
  418. Language                                 : Serbian
  419. Default                                  : No
  420. Forced                                   : No
  421.  
  422. Text #25
  423. ID                                       : 29
  424. Format                                   : PGS
  425. Codec ID                                 : S_HDMV/PGS
  426. Codec ID/Info                            : Picture based subtitle format used on BDs/HD-DVDs
  427. Duration                                 : 2 h 6 min
  428. Bit rate                                 : 22.4 kb/s
  429. Count of elements                        : 2090
  430. Stream size                              : 20.3 MiB (0%)
  431. Language                                 : Slovak
  432. Default                                  : No
  433. Forced                                   : No
  434.  
  435. Text #26
  436. ID                                       : 30
  437. Format                                   : PGS
  438. Codec ID                                 : S_HDMV/PGS
  439. Codec ID/Info                            : Picture based subtitle format used on BDs/HD-DVDs
  440. Duration                                 : 2 h 6 min
  441. Bit rate                                 : 22.9 kb/s
  442. Count of elements                        : 2089
  443. Stream size                              : 20.8 MiB (0%)
  444. Language                                 : Slovenian
  445. Default                                  : No
  446. Forced                                   : No
  447.  
  448. Text #27
  449. ID                                       : 31
  450. Format                                   : PGS
  451. Codec ID                                 : S_HDMV/PGS
  452. Codec ID/Info                            : Picture based subtitle format used on BDs/HD-DVDs
  453. Duration                                 : 2 h 6 min
  454. Bit rate                                 : 19.5 kb/s
  455. Count of elements                        : 1522
  456. Stream size                              : 17.7 MiB (0%)
  457. Language                                 : Swedish
  458. Default                                  : No
  459. Forced                                   : No
  460.  
  461. Text #28
  462. ID                                       : 32
  463. Format                                   : PGS
  464. Codec ID                                 : S_HDMV/PGS
  465. Codec ID/Info                            : Picture based subtitle format used on BDs/HD-DVDs
  466. Duration                                 : 2 h 6 min
  467. Bit rate                                 : 16.0 kb/s
  468. Count of elements                        : 2186
  469. Stream size                              : 14.5 MiB (0%)
  470. Language                                 : Thai
  471. Default                                  : No
  472. Forced                                   : No
  473.  
  474. Text #29
  475. ID                                       : 33
  476. Format                                   : PGS
  477. Codec ID                                 : S_HDMV/PGS
  478. Codec ID/Info                            : Picture based subtitle format used on BDs/HD-DVDs
  479. Duration                                 : 2 h 6 min
  480. Bit rate                                 : 22.3 kb/s
  481. Count of elements                        : 1885
  482. Stream size                              : 20.2 MiB (0%)
  483. Language                                 : Turkish
  484. Default                                  : No
  485. Forced                                   : No
  486.  
  487. Text #30
  488. ID                                       : 34
  489. Format                                   : PGS
  490. Codec ID                                 : S_HDMV/PGS
  491. Codec ID/Info                            : Picture based subtitle format used on BDs/HD-DVDs
  492. Duration                                 : 2 h 7 min
  493. Bit rate                                 : 55.6 kb/s
  494. Count of elements                        : 3559
  495. Stream size                              : 50.9 MiB (0%)
  496. Title                                    : Commentary by director Edward Zwick and actor Brad Pitt
  497. Language                                 : English
  498. Default                                  : No
  499. Forced                                   : No
  500.  
  501. Text #31
  502. ID                                       : 35
  503. Format                                   : PGS
  504. Codec ID                                 : S_HDMV/PGS
  505. Codec ID/Info                            : Picture based subtitle format used on BDs/HD-DVDs
  506. Duration                                 : 2 h 7 min
  507. Bit rate                                 : 54.9 kb/s
  508. Count of elements                        : 3556
  509. Stream size                              : 50.1 MiB (0%)
  510. Title                                    : Commentary by director Edward Zwick and actor Brad Pitt
  511. Language                                 : Dutch
  512. Default                                  : No
  513. Forced                                   : No
  514.  
  515. Text #32
  516. ID                                       : 36
  517. Format                                   : PGS
  518. Codec ID                                 : S_HDMV/PGS
  519. Codec ID/Info                            : Picture based subtitle format used on BDs/HD-DVDs
  520. Duration                                 : 2 h 7 min
  521. Bit rate                                 : 51.1 kb/s
  522. Count of elements                        : 3566
  523. Stream size                              : 46.7 MiB (0%)
  524. Title                                    : Commentary by director Edward Zwick and actor Brad Pitt
  525. Language                                 : French
  526. Default                                  : No
  527. Forced                                   : No
  528.  
  529. Text #33
  530. ID                                       : 37
  531. Format                                   : PGS
  532. Codec ID                                 : S_HDMV/PGS
  533. Codec ID/Info                            : Picture based subtitle format used on BDs/HD-DVDs
  534. Duration                                 : 2 h 7 min
  535. Bit rate                                 : 53.6 kb/s
  536. Count of elements                        : 3562
  537. Stream size                              : 48.9 MiB (0%)
  538. Title                                    : Commentary by director Edward Zwick and actor Brad Pitt
  539. Language                                 : German
  540. Default                                  : No
  541. Forced                                   : No
  542.  
  543. Text #34
  544. ID                                       : 38
  545. Format                                   : PGS
  546. Codec ID                                 : S_HDMV/PGS
  547. Codec ID/Info                            : Picture based subtitle format used on BDs/HD-DVDs
  548. Duration                                 : 2 h 7 min
  549. Bit rate                                 : 37.8 kb/s
  550. Count of elements                        : 2772
  551. Stream size                              : 34.5 MiB (0%)
  552. Title                                    : Commentary by director Edward Zwick and actor Brad Pitt
  553. Language                                 : Japanese
  554. Default                                  : No
  555. Forced                                   : No
  556.  
  557. Text #35
  558. ID                                       : 39
  559. Format                                   : PGS
  560. Codec ID                                 : S_HDMV/PGS
  561. Codec ID/Info                            : Picture based subtitle format used on BDs/HD-DVDs
  562. Duration                                 : 2 h 7 min
  563. Bit rate                                 : 49.7 kb/s
  564. Count of elements                        : 3561
  565. Stream size                              : 45.4 MiB (0%)
  566. Title                                    : Commentary by director Edward Zwick and actor Brad Pitt
  567. Language                                 : Portuguese
  568. Default                                  : No
  569. Forced                                   : No
  570.  
  571. Text #36
  572. ID                                       : 40
  573. Format                                   : PGS
  574. Codec ID                                 : S_HDMV/PGS
  575. Codec ID/Info                            : Picture based subtitle format used on BDs/HD-DVDs
  576. Duration                                 : 2 h 7 min
  577. Bit rate                                 : 52.7 kb/s
  578. Count of elements                        : 3561
  579. Stream size                              : 48.2 MiB (0%)
  580. Title                                    : Commentary by director Edward Zwick and actor Brad Pitt
  581. Language                                 : Spanish
  582. Default                                  : No
  583. Forced                                   : No
  584.  
  585. Text #37
  586. ID                                       : 41
  587. Format                                   : PGS
  588. Codec ID                                 : S_HDMV/PGS
  589. Codec ID/Info                            : Picture based subtitle format used on BDs/HD-DVDs
  590. Duration                                 : 2 h 8 min
  591. Bit rate                                 : 57.3 kb/s
  592. Count of elements                        : 3536
  593. Stream size                              : 52.9 MiB (0%)
  594. Title                                    : Commentary by cinematographer John Toll and production designer Lilly Kilvert
  595. Language                                 : English
  596. Default                                  : No
  597. Forced                                   : No
  598.  
  599. Text #38
  600. ID                                       : 42
  601. Format                                   : PGS
  602. Codec ID                                 : S_HDMV/PGS
  603. Codec ID/Info                            : Picture based subtitle format used on BDs/HD-DVDs
  604. Duration                                 : 2 h 8 min
  605. Bit rate                                 : 55.8 kb/s
  606. Count of elements                        : 3532
  607. Stream size                              : 51.4 MiB (0%)
  608. Title                                    : Commentary by cinematographer John Toll and production designer Lilly Kilvert
  609. Language                                 : Dutch
  610. Default                                  : No
  611. Forced                                   : No
  612.  
  613. Text #39
  614. ID                                       : 43
  615. Format                                   : PGS
  616. Codec ID                                 : S_HDMV/PGS
  617. Codec ID/Info                            : Picture based subtitle format used on BDs/HD-DVDs
  618. Duration                                 : 2 h 8 min
  619. Bit rate                                 : 50.3 kb/s
  620. Count of elements                        : 3538
  621. Stream size                              : 46.4 MiB (0%)
  622. Title                                    : Commentary by cinematographer John Toll and production designer Lilly Kilvert
  623. Language                                 : French
  624. Default                                  : No
  625. Forced                                   : No
  626.  
  627. Text #40
  628. ID                                       : 44
  629. Format                                   : PGS
  630. Codec ID                                 : S_HDMV/PGS
  631. Codec ID/Info                            : Picture based subtitle format used on BDs/HD-DVDs
  632. Duration                                 : 2 h 8 min
  633. Bit rate                                 : 57.5 kb/s
  634. Count of elements                        : 3538
  635. Stream size                              : 53.1 MiB (0%)
  636. Title                                    : Commentary by cinematographer John Toll and production designer Lilly Kilvert
  637. Language                                 : German
  638. Default                                  : No
  639. Forced                                   : No
  640.  
  641. Text #41
  642. ID                                       : 45
  643. Format                                   : PGS
  644. Codec ID                                 : S_HDMV/PGS
  645. Codec ID/Info                            : Picture based subtitle format used on BDs/HD-DVDs
  646. Duration                                 : 2 h 8 min
  647. Bit rate                                 : 35.4 kb/s
  648. Count of elements                        : 2367
  649. Stream size                              : 32.7 MiB (0%)
  650. Title                                    : Commentary by cinematographer John Toll and production designer Lilly Kilvert
  651. Language                                 : Japanese
  652. Default                                  : No
  653. Forced                                   : No
  654.  
  655. Text #42
  656. ID                                       : 46
  657. Format                                   : PGS
  658. Codec ID                                 : S_HDMV/PGS
  659. Codec ID/Info                            : Picture based subtitle format used on BDs/HD-DVDs
  660. Duration                                 : 2 h 8 min
  661. Bit rate                                 : 53.8 kb/s
  662. Count of elements                        : 3536
  663. Stream size                              : 49.6 MiB (0%)
  664. Title                                    : Commentary by cinematographer John Toll and production designer Lilly Kilvert
  665. Language                                 : Portuguese
  666. Default                                  : No
  667. Forced                                   : No
  668.  
  669. Text #43
  670. ID                                       : 47
  671. Format                                   : PGS
  672. Codec ID                                 : S_HDMV/PGS
  673. Codec ID/Info                            : Picture based subtitle format used on BDs/HD-DVDs
  674. Duration                                 : 2 h 8 min
  675. Bit rate                                 : 54.0 kb/s
  676. Count of elements                        : 3540
  677. Stream size                              : 49.8 MiB (0%)
  678. Title                                    : Commentary by cinematographer John Toll and production designer Lilly Kilvert
  679. Language                                 : Spanish
  680. Default                                  : No
  681. Forced                                   : No
  682.  
  683. Menu
  684. 00:00:00.000                             : en:Start
  685. 00:08:01.773                             : en:Ludlow Family History
  686. 00:15:00.942                             : en:Susannah
  687. 00:25:26.233                             : en:Isabel Two
  688. 00:34:06.044                             : en:Dinner and Entertainment
  689. 00:39:51.931                             : en:O'Bannions and Sheriff Tynert
  690. 00:50:03.459                             : en:Tristan and Susannah
  691. 00:56:47.779                             : en:"The Horror's Indescribable"
  692. 01:05:58.246                             : en:Looking for Samuel
  693. 01:12:04.028                             : en:The Indian Way
  694. 01:22:04.336                             : en:"I'm in love with you"
  695. 01:30:28.381                             : en:Tristan Returns
  696. 01:37:19.667                             : en:Passion Consummated
  697. 01:41:59.363                             : en:Alfred Leaves
  698. 01:53:30.512                             : en:Four Beers
  699. 02:00:28.430                             : en:The Bear's Voice
RAW Paste Data
We use cookies for various purposes including analytics. By continuing to use Pastebin, you agree to our use of cookies as described in the Cookies Policy. OK, I Understand
 
Top