SHARE
TWEET

Deadpool.2.2018.720p.BluRay.x264.DTS-HDChina.mkv

iMN0 Aug 8th, 2018 273 Never
Not a member of Pastebin yet? Sign Up, it unlocks many cool features!
  1. General
  2. Unique ID                                : 246295324343736431668211353757589451691 (0xB94AC108374E87CCB8380932BB6033AB)
  3. Complete name                            : Deadpool.2.2018.720p.BluRay.x264.DTS-HDChina.mkv
  4. Format                                   : Matroska
  5. Format version                           : Version 4 / Version 2
  6. File size                                : 6.43 GiB
  7. Duration                                 : 1h 59mn
  8. Overall bit rate                         : 7 710 Kbps
  9. Movie name                               : Deadpool 2 2018 720p BluRay 264 DTS-HDChina
  10. Encoded date                             : UTC 2010-02-22 21:41:31
  11. Writing application                      : mkvmerge v5.9.0 ('On The Loose') built on Dec  9 2012 15:37:01
  12. Writing library                          : libebml v1.3.0 + libmatroska v1.4.0
  13.  
  14. Video
  15. ID                                       : 1
  16. Format                                   : AVC
  17. Format/Info                              : Advanced Video Codec
  18. Format profile                           : High@L4.1
  19. Format settings, CABAC                   : Yes
  20. Format settings, ReFrames                : 12 frames
  21. Muxing mode                              : Header stripping
  22. Codec ID                                 : V_MPEG4/ISO/AVC
  23. Duration                                 : 1h 59mn
  24. Bit rate                                 : 6 200 Kbps
  25. Width                                    : 1 280 pixels
  26. Height                                   : 536 pixels
  27. Display aspect ratio                     : 2.40:1
  28. Frame rate mode                          : Constant
  29. Frame rate                               : 23.976 (24000/1001) fps
  30. Color space                              : YUV
  31. Chroma subsampling                       : 4:2:0
  32. Bit depth                                : 8 bits
  33. Scan type                                : Progressive
  34. Bits/(Pixel*Frame)                       : 0.377
  35. Stream size                              : 5.04 GiB (78%)
  36. Title                                    : Medusa @ HDChina
  37. Writing library                          : x264 core 148 r2665kMod a01e339
  38. Encoding settings                        : cabac=1 / ref=12 / deblock=1:-3:-3 / analyse=0x3:0x133 / me=umh / subme=11 / psy=1 / fade_compensate=0.00 / psy_rd=1.05:0.00 / mixed_ref=1 / me_range=32 / chroma_me=1 / trellis=2 / 8x8dct=1 / cqm=0 / deadzone=21,11 / fast_pskip=0 / chroma_qp_offset=-2 / threads=17 / lookahead_threads=2 / sliced_threads=0 / nr=0 / decimate=0 / interlaced=0 / bluray_compat=0 / constrained_intra=0 / fgo=0 / bframes=8 / b_pyramid=2 / b_adapt=2 / b_bias=0 / direct=3 / weightb=1 / open_gop=0 / weightp=2 / keyint=240 / keyint_min=24 / scenecut=40 / intra_refresh=0 / rc=2pass / mbtree=0 / bitrate=6200 / ratetol=1.0 / qcomp=0.70 / qpmin=0 / qpmax=69 / qpstep=4 / cplxblur=20.0 / qblur=0.5 / ip_ratio=1.20 / pb_ratio=1.20 / aq=3:0.85
  39. Default                                  : Yes
  40. Forced                                   : No
  41.  
  42. Audio
  43. ID                                       : 2
  44. Format                                   : DTS
  45. Format/Info                              : Digital Theater Systems
  46. Mode                                     : 16
  47. Format settings, Endianness              : Big
  48. Muxing mode                              : Header stripping
  49. Codec ID                                 : A_DTS
  50. Duration                                 : 1h 59mn
  51. Bit rate mode                            : Constant
  52. Bit rate                                 : 1 509 Kbps
  53. Channel(s)                               : 6 channels
  54. Channel positions                        : Front: L C R, Side: L R, LFE
  55. Sampling rate                            : 48.0 KHz
  56. Frame rate                               : 93.750 fps (512 spf)
  57. Bit depth                                : 24 bits
  58. Compression mode                         : Lossy
  59. Stream size                              : 1.26 GiB (20%)
  60. Language                                 : English
  61. Default                                  : Yes
  62. Forced                                   : No
  63.  
  64. Text
  65. ID                                       : 3
  66. Format                                   : PGS
  67. Muxing mode                              : zlib
  68. Codec ID                                 : S_HDMV/PGS
  69. Codec ID/Info                            : Picture based subtitle format used on BDs/HD-DVDs
  70. Language                                 : English
  71. Default                                  : Yes
  72. Forced                                   : No
  73.  
  74. Menu
  75. 00:00:00.000                             : en:00:00:00.000
  76. 00:02:31.693                             : en:00:02:31.693
  77. 00:05:53.436                             : en:00:05:53.436
  78. 00:08:11.658                             : en:00:08:11.658
  79. 00:11:30.565                             : en:00:11:30.565
  80. 00:14:52.100                             : en:00:14:52.100
  81. 00:16:20.980                             : en:00:16:20.980
  82. 00:20:24.515                             : en:00:20:24.515
  83. 00:22:00.528                             : en:00:22:00.528
  84. 00:26:34.468                             : en:00:26:34.468
  85. 00:31:40.774                             : en:00:31:40.774
  86. 00:35:16.948                             : en:00:35:16.948
  87. 00:39:00.380                             : en:00:39:00.380
  88. 00:41:49.924                             : en:00:41:49.924
  89. 00:46:16.232                             : en:00:46:16.232
  90. 00:50:30.027                             : en:00:50:30.027
  91. 00:53:56.066                             : en:00:53:56.066
  92. 00:56:27.426                             : en:00:56:27.426
  93. 00:58:25.711                             : en:00:58:25.711
  94. 01:00:26.039                             : en:01:00:26.039
  95. 01:03:59.294                             : en:01:03:59.294
  96. 01:07:57.490                             : en:01:07:57.490
  97. 01:09:38.466                             : en:01:09:38.466
  98. 01:13:27.820                             : en:01:13:27.820
  99. 01:17:49.123                             : en:01:17:49.123
  100. 01:20:56.018                             : en:01:20:56.018
  101. 01:24:05.916                             : en:01:24:05.916
  102. 01:26:21.343                             : en:01:26:21.343
  103. 01:29:28.905                             : en:01:29:28.905
  104. 01:31:41.287                             : en:01:31:41.287
  105. 01:33:26.351                             : en:01:33:26.351
  106. 01:35:29.307                             : en:01:35:29.307
  107. 01:38:54.554                             : en:01:38:54.554
  108. 01:42:16.172                             : en:01:42:16.172
  109. 01:45:19.021                             : en:01:45:19.021
  110. 01:49:00.576                             : en:Medusa @ HDChina
RAW Paste Data
We use cookies for various purposes including analytics. By continuing to use Pastebin, you agree to our use of cookies as described in the Cookies Policy. OK, I Understand
 
Top