SHARE
TWEET

Untitled

a guest Jul 17th, 2017 42 Never
Not a member of Pastebin yet? Sign Up, it unlocks many cool features!
  1. Exact Audio Copy V0.99 prebeta 5 from 4. May 2009
  2.  
  3. EAC extraction logfile from 30. April 2010, 12:49
  4.  
  5. Godsmack / The Oracle
  6.  
  7. Used drive  : SONY    CD-RW  CRX230EE   Adapter: 0  ID: 1
  8.  
  9. Read mode               : Secure
  10. Utilize accurate stream : Yes
  11. Defeat audio cache      : Yes
  12. Make use of C2 pointers : No
  13.  
  14. Read offset correction                      : 6
  15. Overread into Lead-In and Lead-Out          : No
  16. Fill up missing offset samples with silence : Yes
  17. Delete leading and trailing silent blocks   : No
  18. Null samples used in CRC calculations       : Yes
  19. Used interface                              : Native Win32 interface for Win NT & 2000
  20. Gap handling                                : Appended to previous track
  21.  
  22. Used output format              : User Defined Encoder
  23. Selected bitrate                : 128 kBit/s
  24. Quality                         : High
  25. Add ID3 tag                     : No
  26. Command line compressor         : C:\Users\XeRo\Documents\flac.exe
  27. Additional command line options : -V -8 -T "artist=%a" -T "title=%t" -T "album=%g" -T "date=%y" -T "tracknumber=%n" -T "genre=%m" %s
  28.  
  29.  
  30. TOC of the extracted CD
  31.  
  32.      Track |   Start  |  Length  | Start sector | End sector
  33.     ---------------------------------------------------------
  34.         1  |  0:00.00 |  3:22.72 |         0    |    15221  
  35.         2  |  3:22.72 |  4:10.00 |     15222    |    33971  
  36.         3  |  7:32.72 |  3:09.44 |     33972    |    48190  
  37.         4  | 10:42.41 |  5:15.34 |     48191    |    71849  
  38.         5  | 15:58.00 |  6:35.30 |     71850    |   101504  
  39.         6  | 22:33.30 |  3:30.44 |    101505    |   117298  
  40.         7  | 26:03.74 |  3:55.50 |    117299    |   134973  
  41.         8  | 29:59.49 |  3:23.60 |    134974    |   150258  
  42.         9  | 33:23.34 |  4:44.46 |    150259    |   171604  
  43.        10  | 38:08.05 |  6:22.44 |    171605    |   200298  
  44.  
  45.  
  46. Track  1
  47.  
  48.      Filename C:\Users\XeRo\Documents\Godsmack - The Oracle (flac)\01 - Cryin' Like A Bitch.wav
  49.  
  50.      Pre-gap length  0:00:02.00
  51.  
  52.      Peak level 100.0 %
  53.      Track quality 100.0 %
  54.      Test CRC F4B6627D
  55.      Copy CRC F4B6627D
  56.      Track not present in AccurateRip database
  57.      Copy OK
  58.  
  59. Track  2
  60.  
  61.      Filename C:\Users\XeRo\Documents\Godsmack - The Oracle (flac)\02 - Saints and Sinners.wav
  62.  
  63.      Pre-gap length  0:00:01.22
  64.  
  65.      Peak level 100.0 %
  66.      Track quality 100.0 %
  67.      Test CRC E13796E6
  68.      Copy CRC E13796E6
  69.      Track not present in AccurateRip database
  70.      Copy OK
  71.  
  72. Track  3
  73.  
  74.      Filename C:\Users\XeRo\Documents\Godsmack - The Oracle (flac)\03 - War and Peace.wav
  75.  
  76.      Peak level 100.0 %
  77.      Track quality 99.9 %
  78.      Test CRC DDF5E405
  79.      Copy CRC DDF5E405
  80.      Track not present in AccurateRip database
  81.      Copy OK
  82.  
  83. Track  4
  84.  
  85.      Filename C:\Users\XeRo\Documents\Godsmack - The Oracle (flac)\04 - Love-Hate-Sex-Pain.wav
  86.  
  87.      Pre-gap length  0:00:01.01
  88.  
  89.      Peak level 100.0 %
  90.      Track quality 99.9 %
  91.      Test CRC E2C25CE3
  92.      Copy CRC E2C25CE3
  93.      Track not present in AccurateRip database
  94.      Copy OK
  95.  
  96. Track  5
  97.  
  98.      Filename C:\Users\XeRo\Documents\Godsmack - The Oracle (flac)\05 - What If .wav
  99.  
  100.      Peak level 100.0 %
  101.      Track quality 100.0 %
  102.      Test CRC 368627EF
  103.      Copy CRC 368627EF
  104.      Track not present in AccurateRip database
  105.      Copy OK
  106.  
  107. Track  6
  108.  
  109.      Filename C:\Users\XeRo\Documents\Godsmack - The Oracle (flac)\06 - Devil's Swing.wav
  110.  
  111.      Pre-gap length  0:00:02.59
  112.  
  113.      Peak level 100.0 %
  114.      Track quality 100.0 %
  115.      Test CRC 35A96135
  116.      Copy CRC 35A96135
  117.      Track not present in AccurateRip database
  118.      Copy OK
  119.  
  120. Track  7
  121.  
  122.      Filename C:\Users\XeRo\Documents\Godsmack - The Oracle (flac)\07 - Good Day To Die.wav
  123.  
  124.      Pre-gap length  0:00:01.61
  125.  
  126.      Peak level 100.0 %
  127.      Track quality 100.0 %
  128.      Test CRC A3221E9C
  129.      Copy CRC A3221E9C
  130.      Track not present in AccurateRip database
  131.      Copy OK
  132.  
  133. Track  8
  134.  
  135.      Filename C:\Users\XeRo\Documents\Godsmack - The Oracle (flac)\08 - Forever Shamed.wav
  136.  
  137.      Peak level 100.0 %
  138.      Track quality 100.0 %
  139.      Test CRC 4364E253
  140.      Copy CRC 4364E253
  141.      Track not present in AccurateRip database
  142.      Copy OK
  143.  
  144. Track  9
  145.  
  146.      Filename C:\Users\XeRo\Documents\Godsmack - The Oracle (flac)\09 - Shadow of a Soul.wav
  147.  
  148.      Peak level 100.0 %
  149.      Track quality 100.0 %
  150.      Test CRC EA17CB1C
  151.      Copy CRC EA17CB1C
  152.      Track not present in AccurateRip database
  153.      Copy OK
  154.  
  155. Track 10
  156.  
  157.      Filename C:\Users\XeRo\Documents\Godsmack - The Oracle (flac)\10 - The Oracle.wav
  158.  
  159.      Pre-gap length  0:00:02.63
  160.  
  161.      Peak level 100.0 %
  162.      Track quality 100.0 %
  163.      Test CRC 3C28CC9B
  164.      Copy CRC 3C28CC9B
  165.      Track not present in AccurateRip database
  166.      Copy OK
  167.  
  168.  
  169. None of the tracks are present in the AccurateRip database
  170.  
  171. No errors occurred
  172.  
  173. End of status report
RAW Paste Data
Pastebin PRO Summer Special!
Get 60% OFF on Pastebin PRO accounts!
Top