SHARE
TWEET

BEM

Junaid_Hossain Jul 22nd, 2019 (edited) 64 Never
Not a member of Pastebin yet? Sign Up, it unlocks many cool features!
  1. [size=3][font=Courier New] Complete name                            : [AnimeKayo] Bem Ep 02 1080p Eng Sub x265 [Darklord].mkv
  2. Format                                   : Matroska
  3. Format version                           : Version 4
  4. File size                                : 185 MiB
  5. Duration                                 : 24 min 5 s
  6. Overall bit rate                         : 1 075 kb/s
  7.  
  8. Video
  9. Format                                   : HEVC
  10. Format/Info                              : High Efficiency Video Coding
  11. Format profile                           : Main@L4@Main
  12. Codec ID                                 : V_MPEGH/ISO/HEVC
  13. Duration                                 : 24 min 5 s
  14. Bit rate                                 : 7 753 kb/s
  15. Width                                    : 1 920 pixels
  16. Height                                   : 1 080 pixels
  17. Display aspect ratio                     : 16:9
  18. Frame rate mode                          : Constant
  19. Frame rate                               : 23.976 (23976/1000) FPS
  20. Original frame rate                      : 23.976 (24000/1001) FPS
  21. Color space                              : YUV
  22. Chroma subsampling                       : 4:2:0
  23. Bit depth                                : 8 bits
  24. Bits/(Pixel*Frame)                       : 0.156
  25. Stream size                              : 1.30 GiB
  26.  
  27. Audio
  28. Format                                   : Opus
  29. Codec ID                                 : A_OPUS
  30. Duration                                 : 24 min 5 s
  31. Bit rate                                 : 253 kb/s
  32. Channel(s)                               : 2 channels
  33. Channel layout                           : L R
  34. Sampling rate                            : 48.0 kHz
  35. Frame rate                               : 46.875 FPS (1024 SPF)
  36. Bit depth                                : 32 bits
  37. Compression mode                         : Lossy
  38. Delay relative to video                  : -42 ms
  39. Stream size                              : 43.7 MiB (24%)
  40. Writing library                          : Lavc58.35.100 libopus
  41. Language                                 : Japanese
  42. Default                                  : Yes
  43. Forced                                   : No
  44.  
  45. Subtitles
  46. Format                                   : ASS
  47. Codec ID                                 : S_TEXT/ASS
  48. Codec ID/Info                            : Advanced Sub Station Alpha
  49. Duration                                 : 22 min 18 s
  50. Bit rate                                 : 104 b/s
  51. Count of elements                        : 316
  52. Compression mode                         : Lossless
  53. Stream size                              : 16.8 KiB (0%)
  54. Writing library                          : Lavc58.35.100 ssa
  55. Language                                 : English
  56. Default                                  : Yes
  57. Forced                                   : No
  58.  [/font][/size]
  59.  
  60. [i][size=7][center][b][color=#FF1CC2]S[/color][color=#ED31C8]c[/color][color=#DB47CE]r[/color][color=#CA5CD4]e[/color][color=#B872DA]e[/color][color=#A787E0]n[/color][color=#959DE6]s[/color][color=#83B2EC]h[/color][color=#72C8F2]o[/color][color=#60DDF8]ts[/color][/b][/center][/size][/i]
  61.  
  62. [df][color=yellow][size=7]DON'T FORGET TO SAY THANKS[/size][/color][/df]
RAW Paste Data
We use cookies for various purposes including analytics. By continuing to use Pastebin, you agree to our use of cookies as described in the Cookies Policy. OK, I Understand
 
Top