SHARE
TWEET

PINK SEASON (FULL ALBUM) cuesheet

a guest Jan 5th, 2017 169 Never
Not a member of Pastebin yet? Sign Up, it unlocks many cool features!
  1. REM DATE 2017
  2. REM GENRE Hip-Hop, Rap, Comedy
  3. REM https://www.youtube.com/watch?v=0c_mhrB7LlQ
  4. PERFORMER "Pink Guy"
  5. TITLE "Pink Season"
  6. FILE "PINK SEASON (FULL ALBUM).wav" WAVE
  7.   TRACK 01 AUDIO
  8.     TITLE "Hot Nickel Ball On A P*ssy"
  9.     PERFORMER "Pink Guy"
  10.     INDEX 01 00:00:00
  11.   TRACK 02 AUDIO
  12.     TITLE "Are You Serious"
  13.     PERFORMER "Pink Guy"
  14.     INDEX 01 02:19:35
  15.   TRACK 03 AUDIO
  16.     TITLE "White Is Right"
  17.     PERFORMER "Pink Guy"
  18.     INDEX 01 04:48:00
  19.   TRACK 04 AUDIO
  20.     TITLE "I Have A Gun"
  21.     PERFORMER "Pink Guy"
  22.     INDEX 01 06:50:00
  23.   TRACK 05 AUDIO
  24.     TITLE "Nickelodeon Girls"
  25.     PERFORMER "Pink Guy"
  26.     INDEX 01 08:39:35
  27.   TRACK 06 AUDIO
  28.     TITLE "STFU"
  29.     PERFORMER "Pink Guy"
  30.     INDEX 01 11:47:00
  31.   TRACK 07 AUDIO
  32.     TITLE "Gays 4 Donald"
  33.     PERFORMER "Pink Guy"
  34.     INDEX 01 15:32:25
  35.   TRACK 08 AUDIO
  36.     TITLE "I DO IT FOR MY HOOD"
  37.     PERFORMER "Pink Guy"
  38.     INDEX 01 18:36:00
  39.   TRACK 09 AUDIO
  40.     TITLE "PLEASE STOP CALLING ME GAY"
  41.     PERFORMER "Pink Guy"
  42.     INDEX 01 20:33:00
  43.   TRACK 10 AUDIO
  44.     TITLE "She's So Nice"
  45.     PERFORMER "Pink Guy"
  46.     INDEX 01 22:53:00
  47.   TRACK 11 AUDIO
  48.     TITLE "Please Stop Touching My Willy"
  49.     PERFORMER "Pink Guy"
  50.     INDEX 01 25:35:00
  51.   TRACK 12 AUDIO
  52.     TITLE "Uber Pussy"
  53.     PERFORMER "Pink Guy"
  54.     INDEX 01 26:06:00
  55.   TRACK 13 AUDIO
  56.     TITLE "セックス大好き"
  57.     PERFORMER "Pink Guy"
  58.     INDEX 01 28:03:00
  59.   TRACK 14 AUDIO
  60.     TITLE "Dumplings"
  61.     PERFORMER "Pink Guy"
  62.     INDEX 01 30:26:00
  63.   TRACK 15 AUDIO
  64.     TITLE "Meme Machine"
  65.     PERFORMER "Pink Guy"
  66.     INDEX 01 32:44:00
  67.   TRACK 16 AUDIO
  68.     TITLE "Hand On My Gat"
  69.     PERFORMER "Pink Guy"
  70.     INDEX 01 34:55:00
  71.   TRACK 17 AUDIO
  72.     TITLE "d i c c w e t t 1"
  73.     PERFORMER "Pink Guy"
  74.     INDEX 01 36:26:70
  75.   TRACK 18 AUDIO
  76.     TITLE "FLEX LIKE DAVID ICKE"
  77.     PERFORMER "Pink Guy"
  78.     INDEX 01 37:20:00
  79.   TRACK 19 AUDIO
  80.     TITLE "HIGH SCHOOL BLINK193"
  81.     PERFORMER "Pink Guy"
  82.     INDEX 01 40:00:35
  83.   TRACK 12 AUDIO
  84.     TITLE "Rice Balls"
  85.     PERFORMER "Pink Guy"
  86.     INDEX 01 41:38:00
  87.   TRACK 21 AUDIO
  88.     TITLE "Dora"
  89.     PERFORMER "Pink Guy"
  90.     INDEX 01 44:55:00
  91.   TRACK 22 AUDIO
  92.     TITLE "SMD"
  93.     PERFORMER "Pink Guy"
  94.     INDEX 01 47:19:00
  95.   TRACK 23 AUDIO
  96.     TITLE "Dog Festival Directions"
  97.     PERFORMER "Pink Guy"
  98.     INDEX 01 49:07:00
  99.   TRACK 24 AUDIO
  100.     TITLE "We fall Again"
  101.     PERFORMER "Pink Guy"
  102.     INDEX 01 51:49:00
  103.   TRACK 25 AUDIO
  104.     TITLE "CLUB BANGER 3000"
  105.     PERFORMER "Pink Guy"
  106.     INDEX 01 53:31:00
  107.   TRACK 26 AUDIO
  108.     TITLE "Help"
  109.     PERFORMER "Pink Guy"
  110.     INDEX 01 54:49:25
  111.   TRACK 27 AUDIO
  112.     TITLE "Hentai"
  113.     PERFORMER "Pink Guy"
  114.     INDEX 01 57:34:25
  115.   TRACK 28 AUDIO
  116.     TITLE "Small D*ck"
  117.     PERFORMER "Pink Guy"
  118.     INDEX 01 59:03:00
  119.   TRACK 29 AUDIO
  120.     TITLE "Pink Life"
  121.     PERFORMER "Pink Guy"
  122.     INDEX 01 61:16:00
  123.   TRACK 30 AUDIO
  124.     TITLE "Another Earth"
  125.     PERFORMER "Pink Guy"
  126.     INDEX 01 64:29:00
  127.   TRACK 31 AUDIO
  128.     TITLE "I Will Get A Vasectomy"
  129.     PERFORMER "Pink Guy"
  130.     INDEX 01 66:39:00
  131.   TRACK 32 AUDIO
  132.     TITLE "Furr"
  133.     PERFORMER "Pink Guy"
  134.     INDEX 01 69:36:00
  135.   TRACK 33 AUDIO
  136.     TITLE "Fried Noodles"
  137.     PERFORMER "Pink Guy"
  138.     INDEX 01 71:41:00
  139.   TRACK 34 AUDIO
  140.     TITLE "Goofy's Trial"
  141.     PERFORMER "Pink Guy"
  142.     INDEX 01 74:34:00
  143.   TRACK 35 AUDIO
  144.     TITLE "Be Inspired"
  145.     PERFORMER "Pink Guy"
  146.     INDEX 01 77:19:00
RAW Paste Data
We use cookies for various purposes including analytics. By continuing to use Pastebin, you agree to our use of cookies as described in the Cookies Policy. OK, I Understand
 
Top