iMN0

The.Transporter.2002.BluRay.1080p.x264.DTS-SNAHP.mkv

Jul 9th, 2021
148
Never
Not a member of Pastebin yet? Sign Up, it unlocks many cool features!
  1. General
  2. Unique ID : 229417468471762892584313821610968154674 (0xAC98327DA265BE4D893CA29850390232)
  3. Complete name : The.Transporter.2002.BluRay.1080p.x264.DTS-SNAHP.mkv
  4. Format : Matroska
  5. Format version : Version 2
  6. File size : 9.98 GiB
  7. Duration : 1 h 32 min
  8. Overall bit rate : 15.5 Mb/s
  9. Encoded date : UTC 2010-09-05 12:27:37
  10. Writing application : mkvmerge v3.4.0 ('Rapunzel') built on May 15 2010 09:38:20
  11. Writing library : libebml v0.8.0 + libmatroska v0.9.0
  12.  
  13. Video
  14. ID : 1
  15. Format : AVC
  16. Format/Info : Advanced Video Codec
  17. Format profile : High@L4.1
  18. Format settings : CABAC / 5 Ref Frames
  19. Format settings, CABAC : Yes
  20. Format settings, Reference frames : 5 frames
  21. Codec ID : V_MPEG4/ISO/AVC
  22. Duration : 1 h 32 min
  23. Bit rate : 14.0 Mb/s
  24. Width : 1 920 pixels
  25. Height : 816 pixels
  26. Display aspect ratio : 2.35:1
  27. Frame rate mode : Constant
  28. Frame rate : 23.976 FPS
  29. Color space : YUV
  30. Chroma subsampling : 4:2:0
  31. Bit depth : 8 bits
  32. Scan type : Progressive
  33. Bits/(Pixel*Frame) : 0.373
  34. Stream size : 8.81 GiB (88%)
  35. Writing library : x264 core 104 r1688 0b36c6d
  36. Encoding settings : cabac=1 / ref=5 / deblock=1:-3:-3 / analyse=0x3:0x113 / me=umh / subme=10 / psy=1 / psy_rd=0.95:0.00 / mixed_ref=1 / me_range=32 / chroma_me=1 / trellis=2 / 8x8dct=1 / cqm=0 / deadzone=21,11 / fast_pskip=0 / chroma_qp_offset=-2 / threads=6 / sliced_threads=0 / nr=0 / decimate=0 / interlaced=0 / constrained_intra=0 / bframes=6 / b_pyramid=2 / b_adapt=2 / b_bias=0 / direct=3 / weightb=1 / open_gop=0 / weightp=2 / keyint=250 / keyint_min=23 / scenecut=40 / intra_refresh=0 / rc_lookahead=30 / rc=2pass / mbtree=0 / bitrate=14000 / ratetol=1.0 / qcomp=0.60 / qpmin=10 / qpmax=51 / qpstep=4 / cplxblur=20.0 / qblur=0.5 / vbv_maxrate=38000 / vbv_bufsize=30000 / ip_ratio=1.40 / pb_ratio=1.30 / aq=1:0.70 / nal_hrd=none
  37. Language : English
  38. Default : No
  39. Forced : No
  40.  
  41. Audio
  42. ID : 2
  43. Format : DTS
  44. Format/Info : Digital Theater Systems
  45. Codec ID : A_DTS
  46. Duration : 1 h 32 min
  47. Bit rate mode : Constant
  48. Bit rate : 1 509 kb/s
  49. Channel(s) : 6 channels
  50. Channel layout : C L R Ls Rs LFE
  51. Sampling rate : 48.0 kHz
  52. Frame rate : 93.750 FPS (512 SPF)
  53. Bit depth : 24 bits
  54. Compression mode : Lossy
  55. Stream size : 995 MiB (10%)
  56. Title : 5.1 DTS 1536 kbps
  57. Language : English
  58. Default : Yes
  59. Forced : No
  60.  
  61. Text #1
  62. ID : 3
  63. Format : UTF-8
  64. Codec ID : S_TEXT/UTF8
  65. Codec ID/Info : UTF-8 Plain Text
  66. Title : SDH
  67. Language : English
  68. Default : Yes
  69. Forced : No
  70.  
  71. Text #2
  72. ID : 4
  73. Format : UTF-8
  74. Codec ID : S_TEXT/UTF8
  75. Codec ID/Info : UTF-8 Plain Text
  76. Language : Spanish
  77. Default : No
  78. Forced : No
  79.  
  80. Text #3
  81. ID : 5
  82. Format : UTF-8
  83. Codec ID : S_TEXT/UTF8
  84. Codec ID/Info : UTF-8 Plain Text
  85. Language : Dutch
  86. Default : No
  87. Forced : No
  88.  
  89. Text #4
  90. ID : 6
  91. Format : UTF-8
  92. Codec ID : S_TEXT/UTF8
  93. Codec ID/Info : UTF-8 Plain Text
  94. Language : Czech
  95. Default : No
  96. Forced : No
  97.  
  98. Menu
  99. 00:00:00.000 : en:00:00:00.000
  100. 00:02:58.095 : en:00:02:58.095
  101. 00:04:56.755 : en:00:04:56.755
  102. 00:07:40.001 : en:00:07:40.001
  103. 00:10:49.148 : en:00:10:49.148
  104. 00:14:34.415 : en:00:14:34.415
  105. 00:16:05.339 : en:00:16:05.339
  106. 00:20:18.092 : en:00:20:18.092
  107. 00:24:05.653 : en:00:24:05.653
  108. 00:27:21.640 : en:00:27:21.640
  109. 00:28:31.084 : en:00:28:31.084
  110. 00:31:17.959 : en:00:31:17.959
  111. 00:32:41.168 : en:00:32:41.168
  112. 00:38:31.976 : en:00:38:31.976
  113. 00:40:07.780 : en:00:40:07.780
  114. 00:44:16.195 : en:00:44:16.195
  115. 00:49:11.615 : en:00:49:11.615
  116. 00:51:05.729 : en:00:51:05.729
  117. 00:53:49.226 : en:00:53:49.226
  118. 00:56:34.600 : en:00:56:34.600
  119. 01:01:29.144 : en:01:01:29.144
  120. 01:04:01.713 : en:01:04:01.713
  121. 01:05:40.353 : en:01:05:40.353
  122. 01:08:00.285 : en:01:08:00.285
  123. 01:09:23.159 : en:01:09:23.159
  124. 01:12:35.017 : en:01:12:35.017
  125. 01:16:22.578 : en:01:16:22.578
  126. 01:17:59.717 : en:01:17:59.717
  127. 01:19:19.296 : en:01:19:19.296
  128. 01:22:40.998 : en:01:22:40.998
  129. 01:23:27.628 : en:01:23:27.628
  130. 01:27:21.987 : en:01:27:21.987
RAW Paste Data