SHARE
TWEET

Untitled

a guest Jun 14th, 2014 307 Never
Not a member of Pastebin yet? Sign Up, it unlocks many cool features!
  1. General
  2. Ghost.of.Goodnight.Lane.2014.WEB-DL.720p.CINEMANIA.mkv
  3. Format : Matroska
  4. Format version : Version 4 / Version 2
  5. File size : 2.46 GiB
  6. Duration : 1h 37mn
  7. Overall bit rate mode : Variable
  8. Overall bit rate : 3 607 Kbps
  9. Movie name : Release Group CINEMANIA
  10. Encoded date : UTC 2014-06-14 08:04:31
  11. Writing application : mkvmerge v7.0.0 ('Where We Going') 64bit built on Jun 9 2014 15:16:27
  12. Writing library : libebml v1.3.0 + libmatroska v1.4.1
  13.  
  14. Video
  15. ID : 1
  16. Format : AVC
  17. Format/Info : Advanced Video Codec
  18. Format profile : High@L4.1
  19. Format settings, CABAC : Yes
  20. Format settings, ReFrames : 3 frames
  21. Codec ID : V_MPEG4/ISO/AVC
  22. Duration : 1h 37mn
  23. Bit rate mode : Variable
  24. Bit rate : 3 000 Kbps
  25. Maximum bit rate : 40.0 Mbps
  26. Width : 1 280 pixels
  27. Height : 544 pixels
  28. Display aspect ratio : 2.35:1
  29. Frame rate mode : Constant
  30. Frame rate : 23.976 fps
  31. Color space : YUV
  32. Chroma subsampling : 4:2:0
  33. Bit depth : 8 bits
  34. Scan type : Progressive
  35. Bits/(Pixel*Frame) : 0.177
  36. Stream size : 2.02 GiB (82%)
  37. Title : Release Group CINEMANIA
  38. Writing library : x264 core 138 r2358 9e941d1
  39. Encoding settings : cabac=1 / ref=4 / deblock=1:0:0 / analyse=0x3:0x113 / me=hex / subme=7 / psy=1 / psy_rd=1.00:0.15 / mixed_ref=1 / me_range=16 / chroma_me=1 / trellis=1 / 8x8dct=1 / cqm=0 / deadzone=21,11 / fast_pskip=1 / chroma_qp_offset=-3 / threads=18 / lookahead_threads=3 / sliced_threads=0 / slices=4 / nr=0 / decimate=1 / interlaced=0 / bluray_compat=0 / constrained_intra=0 / bframes=3 / b_pyramid=1 / b_adapt=1 / b_bias=0 / direct=1 / weightb=1 / open_gop=0 / weightp=2 / keyint=23 / keyint_min=1 / scenecut=40 / intra_refresh=0 / rc_lookahead=23 / rc=crf / mbtree=1 / crf=17.5 / qcomp=0.60 / qpmin=10 / qpmax=51 / qpstep=4 / vbv_maxrate=40000 / vbv_bufsize=30000 / crf_max=0.0 / nal_hrd=vbr / ip_ratio=1.40 / aq=1:1.00
  40. Language : English
  41. Default : Yes
  42. Forced : No
  43. Color primaries : BT.709
  44. Transfer characteristics : BT.709
  45. Matrix coefficients : BT.709
  46.  
  47. Audio #1
  48. ID : 2
  49. Format : AC-3
  50. Format/Info : Audio Coding 3
  51. Mode extension : CM (complete main)
  52. Format settings, Endianness : Big
  53. Codec ID : A_AC3
  54. Duration : 1h 37mn
  55. Bit rate mode : Constant
  56. Bit rate : 192 Kbps
  57. Channel(s) : 2 channels
  58. Channel positions : Front: L R
  59. Sampling rate : 48.0 KHz
  60. Bit depth : 16 bits
  61. Compression mode : Lossy
  62. Stream size : 134 MiB (5%)
  63. Title : Влад и Снежиночка
  64. Language : Russian
  65. Default : Yes
  66. Forced : Yes
  67.  
  68. Audio #2
  69. ID : 3
  70. Format : AC-3
  71. Format/Info : Audio Coding 3
  72. Mode extension : CM (complete main)
  73. Format settings, Endianness : Big
  74. Codec ID : A_AC3
  75. Duration : 1h 37mn
  76. Bit rate mode : Constant
  77. Bit rate : 384 Kbps
  78. Channel(s) : 6 channels
  79. Channel positions : Front: L C R, Side: L R, LFE
  80. Sampling rate : 48.0 KHz
  81. Bit depth : 16 bits
  82. Compression mode : Lossy
  83. Stream size : 268 MiB (11%)
  84. Language : English
  85. Default : No
  86. Forced : No
  87.  
  88. Text
  89. ID : 4
  90. Format : UTF-8
  91. Codec ID : S_TEXT/UTF8
  92. Codec ID/Info : UTF-8 Plain Text
  93. Language : English
  94. Default : No
  95. Forced : No
  96.  
  97. Menu
  98. 00:00:00.000 : en:Chapter 1
  99. 00:14:05.000 : en:Chapter 2
  100. 00:24:06.000 : en:Chapter 3
  101. 00:33:47.000 : en:Chapter 4
  102. 00:44:27.000 : en:Chapter 5
  103. 00:55:15.000 : en:Chapter 6
  104. 01:05:27.000 : en:Chapter 7
  105. 01:16:07.000 : en:Chapter 8
  106. 01:31:05.000 : en:Chapter 9
RAW Paste Data
We use cookies for various purposes including analytics. By continuing to use Pastebin, you agree to our use of cookies as described in the Cookies Policy. OK, I Understand
 
Top