Secasa

Untitled

Jul 21st, 2015
39
Never
Not a member of Pastebin yet? Sign Up, it unlocks many cool features!
  1. Format : Matroska
  2. Format version : Version 4 / Version 2
  3. File size : 4.18 GiB
  4. Duration : 1h 41mn
  5. Overall bit rate : 5 904 Kbps
  6. Encoded date : UTC 2015-07-21 09:30:46
  7. Writing application : mkvmerge v8.2.0 ('World of Adventure') 64bit
  8. Writing library : libebml v1.3.1 + libmatroska v1.4.2
  9. DURATION : 01:38:57.223000000
  10. NUMBER_OF_FRAMES : 2758
  11. NUMBER_OF_BYTES : 7139854
  12. _STATISTICS_WRITING_APP : mkvmerge v8.2.0 ('World of Adventure') 64bit
  13. _STATISTICS_WRITING_DATE_UTC : 2015-07-21 09:30:46
  14. _STATISTICS_TAGS : BPS DURATION NUMBER_OF_FRAMES NUMBER_OF_BYTES
  15.  
  16. Video
  17. ID : 1
  18. Format : AVC
  19. Format/Info : Advanced Video Codec
  20. Format profile : High@L4
  21. Format settings, CABAC : Yes
  22. Format settings, ReFrames : 3 frames
  23. Codec ID : V_MPEG4/ISO/AVC
  24. Duration : 1h 41mn
  25. Bit rate : 5 500 Kbps
  26. Width : 1 476 pixels
  27. Height : 1 080 pixels
  28. Display aspect ratio : 4:3
  29. Frame rate mode : Constant
  30. Frame rate : 23.976 fps
  31. Color space : YUV
  32. Chroma subsampling : 4:2:0
  33. Bit depth : 8 bits
  34. Scan type : Progressive
  35. Bits/(Pixel*Frame) : 0.144
  36. Stream size : 3.83 GiB (92%)
  37. Writing library : x264 core 130 r2273 b3065e6
  38. Encoding settings : cabac=1 / ref=4 / deblock=1:-2:-2 / analyse=0x3:0x113 / me=hex / subme=9 / psy=1 / psy_rd=1,00:0,15 / mixed_ref=1 / me_range=16 / chroma_me=1 / trellis=2 / 8x8dct=1 / cqm=0 / deadzone=21,11 / fast_pskip=1 / chroma_qp_offset=-3 / threads=12 / lookahead_threads=1 / sliced_threads=0 / nr=0 / decimate=1 / interlaced=0 / bluray_compat=0 / constrained_intra=0 / bframes=4 / b_pyramid=1 / b_adapt=2 / b_bias=0 / direct=1 / weightb=1 / open_gop=0 / weightp=1 / keyint=240 / keyint_min=24 / scenecut=40 / intra_refresh=0 / rc_lookahead=40 / rc=2pass / mbtree=1 / bitrate=5500 / ratetol=1,0 / qcomp=0,60 / qpmin=0 / qpmax=69 / qpstep=4 / cplxblur=20,0 / qblur=0,5 / ip_ratio=1,40 / aq=1:1,00
  39. Language : English
  40. Default : Yes
  41. Forced : No
  42. Color range : Limited
  43. Color primaries : BT.709
  44. Transfer characteristics : BT.709
  45. Matrix coefficients : BT.709
  46.  
  47. Audio #1
  48. ID : 2
  49. Format : AC-3
  50. Format/Info : Audio Coding 3
  51. Mode extension : CM (complete main)
  52. Format settings, Endianness : Big
  53. Codec ID : A_AC3
  54. Duration : 1h 41mn
  55. Bit rate mode : Constant
  56. Bit rate : 192 Kbps
  57. Channel(s) : 2 channels
  58. Channel positions : Front: L R
  59. Sampling rate : 48.0 KHz
  60. Bit depth : 16 bits
  61. Compression mode : Lossy
  62. Stream size : 139 MiB (3%)
  63. Title : AC3 Castellano
  64. Language : Spanish
  65. Default : Yes
  66. Forced : No
  67.  
  68. Audio #2
  69. ID : 3
  70. Format : AC-3
  71. Format/Info : Audio Coding 3
  72. Mode extension : CM (complete main)
  73. Format settings, Endianness : Big
  74. Codec ID : A_AC3
  75. Duration : 1h 41mn
  76. Bit rate mode : Constant
  77. Bit rate : 192 Kbps
  78. Channel(s) : 2 channels
  79. Channel positions : Front: L R
  80. Sampling rate : 48.0 KHz
  81. Bit depth : 16 bits
  82. Compression mode : Lossy
  83. Stream size : 139 MiB (3%)
  84. Title : AC3 Ingles
  85. Language : English
  86. Default : No
  87. Forced : No
  88.  
  89. Text #1
  90. ID : 4
  91. Format : PGS
  92. Muxing mode : zlib
  93. Codec ID : S_HDMV/PGS
  94. Codec ID/Info : Picture based subtitle format used on BDs/HD-DVDs
  95. Title : Castellano
  96. Language : Spanish
  97. Default : No
  98. Forced : No
  99.  
  100. Text #2
  101. ID : 5
  102. Format : PGS
  103. Muxing mode : zlib
  104. Codec ID : S_HDMV/PGS
  105. Codec ID/Info : Picture based subtitle format used on BDs/HD-DVDs
  106. Title : Ingles
  107. Language : English
  108. Default : No
  109. Forced : No
  110.  
  111. Menu
  112. 00:00:00.000 : en:00:00:00.000
  113. 00:03:00.263 : en:00:03:00.180
  114. 00:06:00.443 : en:00:06:00.360
  115. 00:09:00.623 : en:00:09:00.540
  116. 00:12:00.803 : en:00:12:00.720
  117. 00:15:00.983 : en:00:15:00.900
  118. 00:18:01.163 : en:00:18:01.080
  119. 00:21:01.343 : en:00:21:01.260
  120. 00:24:01.523 : en:00:24:01.440
  121. 00:27:01.703 : en:00:27:01.620
  122. 00:30:01.883 : en:00:30:01.800
  123. 00:33:02.063 : en:00:33:01.980
  124. 00:36:02.243 : en:00:36:02.160
  125. 00:39:02.423 : en:00:39:02.340
  126. 00:42:02.603 : en:00:42:02.520
  127. 00:45:02.783 : en:00:45:02.700
  128. 00:48:02.963 : en:00:48:02.880
  129. 00:51:03.143 : en:00:51:03.060
  130. 00:54:03.323 : en:00:54:03.240
  131. 00:57:03.503 : en:00:57:03.420
  132. 01:00:03.683 : en:01:00:03.600
  133. 01:03:03.863 : en:01:03:03.780
  134. 01:06:04.043 : en:01:06:03.960
  135. 01:09:04.223 : en:01:09:04.140
  136. 01:12:04.403 : en:01:12:04.320
  137. 01:15:04.583 : en:01:15:04.500
  138. 01:18:04.763 : en:01:18:04.680
  139. 01:21:04.943 : en:01:21:04.860
  140. 01:24:05.123 : en:01:24:05.040
  141. 01:27:05.303 : en:01:27:05.220
  142. 01:30:05.483 : en:01:30:05.400
  143. 01:33:05.663 : en:01:33:05.580
  144. 01:36:05.843 : en:01:36:05.760
  145. 01:39:06.023 : en:01:39:05.940
RAW Paste Data