SHARE
TWEET

[KamiFS]_Ajin_Demi-Human_-_03_[TV]_[720p_x264]_[10bit]_[0B2F1AB2].mkv

HYBRID_BEING Nov 17th, 2016 69 Never
Not a member of Pastebin yet? Sign Up, it unlocks many cool features!
  1. General
  2. Unique ID                                : 224071109416698501869347406535261391758 (0xA89286A355552789888F5DE0567B8B8E)
  3. Complete name                            : [KamiFS]_Ajin_Demi-Human_-_03_[TV]_[720p_x264]_[10bit]_[0B2F1AB2].mkv
  4. Format                                   : Matroska
  5. Format version                           : Version 4 / Version 2
  6. File size                                : 648 MiB
  7. Duration                                 : 24mn 11s
  8. Overall bit rate                         : 3 744 Kbps
  9. Encoded date                             : UTC 2016-02-02 00:53:37
  10. Writing application                      : mkvmerge v8.8.0 ('Wind at my back') 64bit
  11. Writing library                          : libebml v1.3.3 + libmatroska v1.4.4
  12. Attachments                              : 9THYSSEN.TTF / 28 Days Later_0.ttf / arial_1.ttf / arialbd.ttf / ariblk.ttf / Arsenal-Bold_0.otf / Arsenal-BoldItalic_0.otf / Base05.ttf / LithosPro-Black.otf / LithosPro-Regular.otf / Lora-Regular.ttf / OpeningKaraoke[font].ttf / Puritan-BoldItalic.otf / timesbd.ttf / TomatoRoundCondensed-Thin_1.ttf / Ubuntu-M.ttf
  13.  
  14. Video
  15. ID                                       : 1
  16. Format                                   : AVC
  17. Format/Info                              : Advanced Video Codec
  18. Format profile                           : High 10@L5.1
  19. Format settings, CABAC                   : Yes
  20. Format settings, ReFrames                : 10 frames
  21. Codec ID                                 : V_MPEG4/ISO/AVC
  22. Duration                                 : 24mn 11s
  23. Bit rate                                 : 3 478 Kbps
  24. Width                                    : 1 280 pixels
  25. Height                                   : 720 pixels
  26. Display aspect ratio                     : 16:9
  27. Frame rate mode                          : Constant
  28. Frame rate                               : 23.976 (24000/1001) fps
  29. Color space                              : YUV
  30. Chroma subsampling                       : 4:2:0
  31. Bit depth                                : 10 bits
  32. Scan type                                : Progressive
  33. Bits/(Pixel*Frame)                       : 0.157
  34. Stream size                              : 602 MiB (93%)
  35. Writing library                          : x264 core 142 r2431+42 c69a006 tMod [10-bit@all X86]
  36. Encoding settings                        : cabac=1 / ref=10 / deblock=1:1:1 / analyse=0x3:0x133 / me=umh / subme=10 / psy=1 / fade_compensate=0.00 / psy_rd=1.00:0.00 / mixed_ref=1 / me_range=32 / chroma_me=1 / trellis=2 / 8x8dct=1 / cqm=0 / deadzone=21,11 / fast_pskip=0 / chroma_qp_offset=-2 / threads=6 / lookahead_threads=1 / sliced_threads=0 / nr=0 / decimate=1 / interlaced=0 / bluray_compat=0 / constrained_intra=0 / fgo=0 / bframes=10 / b_pyramid=2 / b_adapt=2 / b_bias=0 / direct=3 / weightb=1 / open_gop=0 / weightp=2 / keyint=250 / keyint_min=23 / scenecut=40 / intra_refresh=0 / rc_lookahead=60 / rc=crf / mbtree=1 / crf=16.5000 / qcomp=0.70 / qpmin=0:0:0 / qpmax=81:81:81 / qpstep=4 / ip_ratio=1.40 / aq=1:1.00 / aq-sensitivity=10.00 / aq-factor=1.00:1.00:1.00 / aq2=0 / aq3=0
  37. Language                                 : Japanese
  38. Default                                  : Yes
  39. Forced                                   : No
  40. Color range                              : Limited
  41. Color primaries                          : BT.709
  42. Transfer characteristics                 : BT.709
  43. Matrix coefficients                      : BT.709
  44.  
  45. Audio
  46. ID                                       : 2
  47. Format                                   : AAC
  48. Format/Info                              : Advanced Audio Codec
  49. Format profile                           : LC
  50. Codec ID                                 : A_AAC
  51. Duration                                 : 24mn 11s
  52. Bit rate                                 : 192 Kbps
  53. Channel(s)                               : 2 channels
  54. Channel positions                        : Front: L R
  55. Sampling rate                            : 48.0 KHz
  56. Frame rate                               : 46.875 fps (1024 spf)
  57. Compression mode                         : Lossy
  58. Delay relative to video                  : 18ms
  59. Stream size                              : 33.2 MiB (5%)
  60. Language                                 : Japanese
  61. Default                                  : Yes
  62. Forced                                   : No
  63.  
  64. Text
  65. ID                                       : 3
  66. Format                                   : ASS
  67. Codec ID                                 : S_TEXT/ASS
  68. Codec ID/Info                            : Advanced Sub Station Alpha
  69. Duration                                 : 23mn 52s
  70. Bit rate                                 : 39.6 Kbps
  71. Count of elements                        : 27358
  72. Compression mode                         : Lossless
  73. Stream size                              : 6.77 MiB (1%)
  74. Language                                 : English
  75. Default                                  : Yes
  76. Forced                                   : No
  77.  
  78. Menu #1
  79. 00:00:00.000                             : en:Avant
  80. 00:01:58.994                             : en:Opening
  81. 00:03:29.042                             : en:Part A
  82. 00:13:44.990                             : en:Part B
  83. 00:22:27.971                             : en:Ending
  84. 00:23:58.019                             : en:Next
  85.  
  86. Menu #2
  87. 00:00:00.054                             : en:00:00:00.054
RAW Paste Data
We use cookies for various purposes including analytics. By continuing to use Pastebin, you agree to our use of cookies as described in the Cookies Policy. OK, I Understand
Top