SHARE
TWEET

Untitled

a guest Feb 16th, 2015 4 Never
Not a member of Pastebin yet? Sign Up, it unlocks many cool features!
  1.  
  2. C:\Users\YaMoonSun\Videos>ffmpeg -i "Kid Goes Dubstep.webm" -c:v copy -c:a copy
  3. -ss 00:01:11 -to 00:01:14 "Kid Goes Dubstep LQ.webm" -y
  4. ffmpeg version N-69672-g078be09 Copyright (c) 2000-2015 the FFmpeg developers
  5.   built with gcc 4.9.2 (GCC)
  6.   configuration: --enable-gpl --enable-version3 --disable-w32threads --enable-av
  7. isynth --enable-bzlib --enable-fontconfig --enable-frei0r --enable-gnutls --enab
  8. le-iconv --enable-libass --enable-libbluray --enable-libbs2b --enable-libcaca --
  9. enable-libfreetype --enable-libgme --enable-libgsm --enable-libilbc --enable-lib
  10. modplug --enable-libmp3lame --enable-libopencore-amrnb --enable-libopencore-amrw
  11. b --enable-libopenjpeg --enable-libopus --enable-librtmp --enable-libschroedinge
  12. r --enable-libsoxr --enable-libspeex --enable-libtheora --enable-libtwolame --en
  13. able-libvidstab --enable-libvo-aacenc --enable-libvo-amrwbenc --enable-libvorbis
  14.  --enable-libvpx --enable-libwavpack --enable-libwebp --enable-libx264 --enable-
  15. libx265 --enable-libxavs --enable-libxvid --enable-lzma --enable-decklink --enab
  16. le-zlib
  17.   libavutil      54. 18.100 / 54. 18.100
  18.   libavcodec     56. 21.102 / 56. 21.102
  19.   libavformat    56. 19.100 / 56. 19.100
  20.   libavdevice    56.  4.100 / 56.  4.100
  21.   libavfilter     5.  9.104 /  5.  9.104
  22.   libswscale      3.  1.101 /  3.  1.101
  23.   libswresample   1.  1.100 /  1.  1.100
  24.   libpostproc    53.  3.100 / 53.  3.100
  25. Input #0, matroska,webm, from 'Kid Goes Dubstep.webm':
  26.   Metadata:
  27.     encoder         : google
  28.   Duration: 00:03:02.07, start: 0.000000, bitrate: 389 kb/s
  29.     Stream #0:0(eng): Video: vp8, yuv420p, 540x282, SAR 1:1 DAR 90:47, 1k fps, 2
  30. 9.97 tbr, 1k tbn, 1k tbc (default)
  31.     Stream #0:1: Audio: vorbis, 44100 Hz, stereo, fltp (default)
  32. Output #0, webm, to 'Kid Goes Dubstep LQ.webm':
  33.   Metadata:
  34.     encoder         : Lavf56.19.100
  35.     Stream #0:0(eng): Video: vp8, yuv420p, 540x282 [SAR 1:1 DAR 90:47], q=2-31,
  36. 1k fps, 29.97 tbr, 1k tbn, 1k tbc (default)
  37.     Stream #0:1: Audio: vorbis, 44100 Hz, stereo (default)
  38. Stream mapping:
  39.   Stream #0:0 -> #0:0 (copy)
  40.   Stream #0:1 -> #0:1 (copy)
  41. Press [q] to stop, [?] for help
  42. frame=    0 fps=0.0 q=-1.0 Lsize=      51kB time=00:00:02.97 bitrate= 141.3kbits
  43. /s
  44. video:0kB audio:46kB subtitle:0kB other streams:0kB global headers:4kB muxing ov
  45. erhead: 11.959461%
  46.  
  47. C:\Users\YaMoonSun\Videos>
RAW Paste Data
We use cookies for various purposes including analytics. By continuing to use Pastebin, you agree to our use of cookies as described in the Cookies Policy. OK, I Understand
 
Top