Guest User

Untitled

a guest
May 12th, 2021
74
Never
Not a member of Pastebin yet? Sign Up, it unlocks many cool features!
  1. General
  2. Unique ID : 319016402032954979100423178126652714493 (0xF00052FB0252A49159908CB2D6C9ADFD)
  3. Complete name : F:\Video\Oxygene.2021.WEB-DL.1080p.seleZen.mkv
  4. Format : Matroska
  5. Format version : Version 4
  6. File size : 9.80 GiB
  7. Duration : 1 h 41 min
  8. Overall bit rate : 13.8 Mb/s
  9. Movie name : Oxygene 2021 from seleZen
  10. Encoded date : UTC 2021-05-12 23:09:44
  11. Writing application : mkvmerge v55.0.0 ('Waiting For Space') 64-bit
  12. Writing library : libebml v1.4.2 + libmatroska v1.6.4
  13.  
  14. Video
  15. ID : 1
  16. Format : AVC
  17. Format/Info : Advanced Video Codec
  18. Format profile : High@L4.1
  19. Format settings : CABAC / 4 Ref Frames
  20. Format settings, CABAC : Yes
  21. Format settings, Reference : 4 frames
  22. Codec ID : V_MPEG4/ISO/AVC
  23. Duration : 1 h 41 min
  24. Bit rate : 11.2 Mb/s
  25. Width : 1 920 pixels
  26. Height : 804 pixels
  27. Display aspect ratio : 2.40:1
  28. Frame rate mode : Constant
  29. Frame rate : 24.000 FPS
  30. Color space : YUV
  31. Chroma subsampling : 4:2:0
  32. Bit depth : 8 bits
  33. Scan type : Progressive
  34. Bits/(Pixel*Frame) : 0.302
  35. Stream size : 7.97 GiB (81%)
  36. Writing library : x264 core 161 r3027 4121277
  37. Encoding settings : cabac=1 / ref=4 / deblock=1:-3:-3 / analyse=0x3:0x133 / me=umh / subme=11 / psy=1 / psy_rd=1.00:0.00 / mixed_ref=1 / me_range=32 / chroma_me=1 / trellis=2 / 8x8dct=1 / cqm=0 / deadzone=21,11 / fast_pskip=0 / chroma_qp_offset=-2 / threads=25 / lookahead_threads=4 / sliced_threads=0 / nr=0 / decimate=0 / interlaced=0 / bluray_compat=0 / constrained_intra=0 / bframes=8 / b_pyramid=2 / b_adapt=2 / b_bias=0 / direct=3 / weightb=1 / open_gop=0 / weightp=2 / keyint=250 / keyint_min=23 / scenecut=40 / intra_refresh=0 / rc=crf / mbtree=0 / crf=16.0 / qcomp=0.60 / qpmin=0 / qpmax=69 / qpstep=4 / ip_ratio=1.30 / pb_ratio=1.20 / aq=3:0.80
  38. Language : English
  39. Default : Yes
  40. Forced : No
  41.  
  42. Audio #1
  43. ID : 2
  44. Format : E-AC-3
  45. Format/Info : Enhanced AC-3
  46. Commercial name : Dolby Digital Plus
  47. Codec ID : A_EAC3
  48. Duration : 1 h 41 min
  49. Bit rate mode : Constant
  50. Bit rate : 640 kb/s
  51. Channel(s) : 6 channels
  52. Channel layout : L R C LFE Ls Rs
  53. Sampling rate : 48.0 kHz
  54. Frame rate : 31.250 FPS (1536 SPF)
  55. Compression mode : Lossy
  56. Stream size : 467 MiB (5%)
  57. Title : Dub [Netflix]
  58. Language : Russian
  59. Service kind : Complete Main
  60. Default : Yes
  61. Forced : Yes
  62.  
  63. Audio #2
  64. ID : 3
  65. Format : AC-3
  66. Format/Info : Audio Coding 3
  67. Commercial name : Dolby Digital
  68. Codec ID : A_AC3
  69. Duration : 1 h 41 min
  70. Bit rate mode : Constant
  71. Bit rate : 640 kb/s
  72. Channel(s) : 6 channels
  73. Channel layout : L R C LFE Ls Rs
  74. Sampling rate : 48.0 kHz
  75. Frame rate : 31.250 FPS (1536 SPF)
  76. Compression mode : Lossy
  77. Stream size : 467 MiB (5%)
  78. Title : Dub [Netflix]
  79. Language : Russian
  80. Service kind : Complete Main
  81. Default : No
  82. Forced : No
  83.  
  84. Audio #3
  85. ID : 4
  86. Format : E-AC-3
  87. Format/Info : Enhanced AC-3
  88. Commercial name : Dolby Digital Plus
  89. Codec ID : A_EAC3
  90. Duration : 1 h 41 min
  91. Bit rate mode : Constant
  92. Bit rate : 640 kb/s
  93. Channel(s) : 6 channels
  94. Channel layout : L R C LFE Ls Rs
  95. Sampling rate : 48.0 kHz
  96. Frame rate : 31.250 FPS (1536 SPF)
  97. Compression mode : Lossy
  98. Stream size : 467 MiB (5%)
  99. Title : Dub [Netflix]
  100. Language : Ukrainian
  101. Service kind : Complete Main
  102. Default : No
  103. Forced : No
  104.  
  105. Audio #4
  106. ID : 5
  107. Format : E-AC-3
  108. Format/Info : Enhanced AC-3
  109. Commercial name : Dolby Digital Plus
  110. Codec ID : A_EAC3
  111. Duration : 1 h 41 min
  112. Bit rate mode : Constant
  113. Bit rate : 640 kb/s
  114. Channel(s) : 6 channels
  115. Channel layout : L R C LFE Ls Rs
  116. Sampling rate : 48.0 kHz
  117. Frame rate : 31.250 FPS (1536 SPF)
  118. Compression mode : Lossy
  119. Stream size : 467 MiB (5%)
  120. Title : Original
  121. Language : English
  122. Service kind : Complete Main
  123. Default : No
  124. Forced : No
  125.  
  126. Text #1
  127. ID : 6
  128. Format : UTF-8
  129. Codec ID : S_TEXT/UTF8
  130. Codec ID/Info : UTF-8 Plain Text
  131. Duration : 1 h 40 min
  132. Bit rate : 1 b/s
  133. Count of elements : 32
  134. Stream size : 1.09 KiB (0%)
  135. Title : Forced
  136. Language : Russian
  137. Default : Yes
  138. Forced : Yes
  139.  
  140. Text #2
  141. ID : 7
  142. Format : UTF-8
  143. Codec ID : S_TEXT/UTF8
  144. Codec ID/Info : UTF-8 Plain Text
  145. Duration : 1 h 40 min
  146. Bit rate : 75 b/s
  147. Count of elements : 1119
  148. Stream size : 55.5 KiB (0%)
  149. Title : Full
  150. Language : Russian
  151. Default : No
  152. Forced : No
  153.  
  154. Text #3
  155. ID : 8
  156. Format : UTF-8
  157. Codec ID : S_TEXT/UTF8
  158. Codec ID/Info : UTF-8 Plain Text
  159. Duration : 1 h 40 min
  160. Bit rate : 0 b/s
  161. Count of elements : 21
  162. Stream size : 721 Bytes (0%)
  163. Title : Forced
  164. Language : Ukrainian
  165. Default : No
  166. Forced : No
  167.  
  168. Text #4
  169. ID : 9
  170. Format : UTF-8
  171. Codec ID : S_TEXT/UTF8
  172. Codec ID/Info : UTF-8 Plain Text
  173. Duration : 1 h 40 min
  174. Bit rate : 77 b/s
  175. Count of elements : 1114
  176. Stream size : 57.0 KiB (0%)
  177. Title : Full
  178. Language : Ukrainian
  179. Default : No
  180. Forced : No
  181.  
  182. Text #5
  183. ID : 10
  184. Format : UTF-8
  185. Codec ID : S_TEXT/UTF8
  186. Codec ID/Info : UTF-8 Plain Text
  187. Duration : 1 h 14 min
  188. Bit rate : 0 b/s
  189. Count of elements : 9
  190. Stream size : 326 Bytes (0%)
  191. Title : Forced
  192. Language : English
  193. Default : No
  194. Forced : No
  195.  
  196. Text #6
  197. ID : 11
  198. Format : UTF-8
  199. Codec ID : S_TEXT/UTF8
  200. Codec ID/Info : UTF-8 Plain Text
  201. Duration : 1 h 36 min
  202. Bit rate : 57 b/s
  203. Count of elements : 1259
  204. Stream size : 40.9 KiB (0%)
  205. Title : [CC]
  206. Language : English
  207. Default : No
  208. Forced : No
  209.  
  210. Text #7
  211. ID : 12
  212. Format : UTF-8
  213. Codec ID : S_TEXT/UTF8
  214. Codec ID/Info : UTF-8 Plain Text
  215. Duration : 1 h 33 min
  216. Bit rate : 48 b/s
  217. Count of elements : 1095
  218. Stream size : 33.2 KiB (0%)
  219. Language : English
  220. Default : No
  221. Forced : No
  222.  
  223.  
RAW Paste Data