SHARE
TWEET

Untitled

a guest Feb 19th, 2020 63 Never
Not a member of Pastebin yet? Sign Up, it unlocks many cool features!
  1. Общее
  2. Полное имя                               : E:\Work\Трасса А2\season 1 - mp4\the.autobahn.a2_s01e01.iptv.rus.mp4
  3. Формат                                   : MPEG-4
  4. Профиль формата                          : Base Media
  5. Идентификатор кодека                     : isom (isom/iso2/avc1/mp41)
  6. Размер файла                             : 535 Мбайт
  7. Продолжительность                        : 44 м. 16 с.
  8. Общий поток                              : 1690 Кбит/сек
  9. Программа кодирования                    : Lavf58.20.100
  10.  
  11. Видео
  12. Идентификатор                            : 1
  13. Формат                                   : AVC
  14. Формат/Информация                        : Advanced Video Codec
  15. Профиль формата                          : High@L3
  16. Настройки формата                        : CABAC / 4 Ref Frames
  17. Параметр CABAC формата                   : Да
  18. Параметр RefFrames формата               : 4 кадра
  19. Идентификатор кодека                     : avc1
  20. Идентификатор кодека/Информация          : Advanced Video Coding
  21. Продолжительность                        : 44 м. 16 с.
  22. Битрейт                                  : 1556 Кбит/сек
  23. Ширина                                   : 720 пикселей
  24. Высота                                   : 576 пикселей
  25. Соотношение сторон                       : 16:9
  26. Режим частоты кадров                     : Постоянный
  27. Частота кадров                           : 25,000 кадров/сек
  28. Стандарт вещания                         : PAL
  29. Цветовое пространство                    : YUV
  30. Субдискретизация насыщенности            : 4:2:0
  31. Битовая глубина                          : 8 бит
  32. Тип развёртки                            : Прогрессивная
  33. Бит/(Пиксели*Кадры)                      : 0.150
  34. Размер потока                            : 493 Мбайт (92%)
  35. Библиотека кодирования                   : x264 core 157 r2970 5493be8
  36. Настройки программы                      : cabac=1 / ref=3 / deblock=1:0:0 / analyse=0x3:0x113 / me=hex / subme=7 / psy=1 / psy_rd=1.00:0.00 / mixed_ref=1 / me_range=16 / chroma_me=1 / trellis=1 / 8x8dct=1 / cqm=0 / deadzone=21,11 / fast_pskip=1 / chroma_qp_offset=-2 / threads=6 / lookahead_threads=1 / sliced_threads=0 / nr=0 / decimate=1 / interlaced=0 / bluray_compat=0 / constrained_intra=0 / bframes=3 / b_pyramid=2 / b_adapt=1 / b_bias=0 / direct=1 / weightb=1 / open_gop=0 / weightp=2 / keyint=250 / keyint_min=25 / scenecut=40 / intra_refresh=0 / rc_lookahead=40 / rc=crf / mbtree=1 / crf=22.0 / qcomp=0.60 / qpmin=0 / qpmax=69 / qpstep=4 / ip_ratio=1.40 / aq=1:1.00
  37. Codec configuration box                  : avcC
  38.  
  39. Аудио
  40. Идентификатор                            : 2
  41. Формат                                   : AAC LC
  42. Формат/Информация                        : Advanced Audio Codec Low Complexity
  43. Идентификатор кодека                     : mp4a-40-2
  44. Продолжительность                        : 44 м. 16 с.
  45. Duration_LastFrame                       : -16 мс.
  46. Вид битрейта                             : Постоянный
  47. Битрейт                                  : 128 Кбит/сек
  48. Каналы                                   : 2 канала
  49. ChannelLayout                            : L R
  50. Частота                                  : 48,0 КГц
  51. Частота кадров                           : 46,875 кадров/сек (1024 SPF)
  52. Метод сжатия                             : С потерями
  53. Размер потока                            : 40,6 Мбайт (8%)
  54. Язык                                     : Russian
  55. Default                                  : Да
  56. AlternateGroup/String                    : 1
RAW Paste Data
We use cookies for various purposes including analytics. By continuing to use Pastebin, you agree to our use of cookies as described in the Cookies Policy. OK, I Understand
Top