SHARE
TWEET

Beats WEB-DL 720p

dirtyharrys Jun 21st, 2019 83 Never
Not a member of Pastebin yet? Sign Up, it unlocks many cool features!
  1. General
  2. Unique ID                   : 140039988751769045993288830641268043996 (0x695AB884B3A76CC7480E3466C30BB0DC)
  3. Complete name               : E:\V0VCQmVhdHM.mkv
  4. Format                      : Matroska
  5. Format version              : Version 4
  6. File size                   : 1.95 GiB
  7. Duration                    : 1 h 50 min
  8. Overall bit rate mode       : Variable
  9. Overall bit rate            : 2 537 kb/s
  10. Movie name                  : Beats WEB-DL / Beats WEB-DL
  11. Encoded date                : UTC 2019-06-20 07:39:57
  12. Writing application         : mkvmerge v30.1.0 ('Forever And More') 32-bit
  13. Writing library             : libebml v1.3.6 + libmatroska v1.4.9
  14. Copyright                   : Movies HDs 2019
  15. ARTIST                      : HarshLearner
  16.  
  17. Video
  18. ID                          : 1
  19. Format                      : AVC
  20. Format/Info                 : Advanced Video Codec
  21. Format profile              : Main@L3.1
  22. Format settings             : CABAC / 3 Ref Frames
  23. Format settings, CABAC      : Yes
  24. Format settings, ReFrames   : 3 frames
  25. Codec ID                    : V_MPEG4/ISO/AVC
  26. Duration                    : 1 h 50 min
  27. Bit rate mode               : Variable
  28. Bit rate                    : 1 780 kb/s
  29. Maximum bit rate            : 2 670 kb/s
  30. Width                       : 1 280 pixels
  31. Height                      : 720 pixels
  32. Display aspect ratio        : 16:9
  33. Frame rate mode             : Constant
  34. Frame rate                  : 23.976 (24000/1001) FPS
  35. Color space                 : YUV
  36. Chroma subsampling          : 4:2:0
  37. Bit depth                   : 8 bits
  38. Scan type                   : Progressive
  39. Bits/(Pixel*Frame)          : 0.081
  40. Stream size                 : 1.36 GiB (70%)
  41. Title                       : Beats
  42. Writing library             : x264 core 148 r2715 7e75228
  43. Default                     : Yes
  44. Forced                      : No
  45.  
  46. Audio #1
  47. ID                          : 2
  48. Format                      : AC-3
  49. Format/Info                 : Audio Coding 3
  50. Commercial name             : Dolby Digital
  51. Codec ID                    : A_AC3
  52. Duration                    : 1 h 50 min
  53. Bit rate mode               : Constant
  54. Bit rate                    : 384 kb/s
  55. Channel(s)                  : 6 channels
  56. Channel layout              : L R C LFE Ls Rs
  57. Sampling rate               : 48.0 kHz
  58. Frame rate                  : 31.250 FPS (1536 SPF)
  59. Bit depth                   : 16 bits
  60. Compression mode            : Lossy
  61. Stream size                 : 302 MiB (15%)
  62. Language                    : English
  63. Service kind                : Complete Main
  64. Default                     : No
  65. Forced                      : No
  66.  
  67. Audio #2
  68. ID                          : 3
  69. Format                      : AC-3
  70. Format/Info                 : Audio Coding 3
  71. Commercial name             : Dolby Digital
  72. Codec ID                    : A_AC3
  73. Duration                    : 1 h 50 min
  74. Bit rate mode               : Constant
  75. Bit rate                    : 384 kb/s
  76. Channel(s)                  : 6 channels
  77. Channel layout              : L R C LFE Ls Rs
  78. Sampling rate               : 48.0 kHz
  79. Frame rate                  : 31.250 FPS (1536 SPF)
  80. Bit depth                   : 16 bits
  81. Compression mode            : Lossy
  82. Stream size                 : 302 MiB (15%)
  83. Language                    : Spanish
  84. Service kind                : Complete Main
  85. Default                     : Yes
  86. Forced                      : Yes
  87.  
  88. Text #1
  89. ID                          : 4
  90. Format                      : UTF-8
  91. Codec ID                    : S_TEXT/UTF8
  92. Codec ID/Info               : UTF-8 Plain Text
  93. Duration                    : 1 h 48 min
  94. Bit rate                    : 82 b/s
  95. Count of elements           : 1934
  96. Stream size                 : 65.4 KiB (0%)
  97. Title                       : SDH
  98. Language                    : English
  99. Default                     : No
  100. Forced                      : No
  101.  
  102. Text #2
  103. ID                          : 5
  104. Format                      : UTF-8
  105. Codec ID                    : S_TEXT/UTF8
  106. Codec ID/Info               : UTF-8 Plain Text
  107. Duration                    : 1 h 48 min
  108. Bit rate                    : 60 b/s
  109. Count of elements           : 1715
  110. Stream size                 : 47.9 KiB (0%)
  111. Language                    : Spanish
  112. Default                     : Yes
  113. Forced                      : Yes
  114.  
  115. Text #3
  116. ID                          : 6
  117. Format                      : UTF-8
  118. Codec ID                    : S_TEXT/UTF8
  119. Codec ID/Info               : UTF-8 Plain Text
  120. Duration                    : 1 h 48 min
  121. Bit rate                    : 59 b/s
  122. Count of elements           : 1559
  123. Stream size                 : 47.5 KiB (0%)
  124. Language                    : French
  125. Default                     : No
  126. Forced                      : No
  127.  
  128. Text #4
  129. ID                          : 7
  130. Format                      : UTF-8
  131. Codec ID                    : S_TEXT/UTF8
  132. Codec ID/Info               : UTF-8 Plain Text
  133. Duration                    : 1 h 48 min
  134. Bit rate                    : 56 b/s
  135. Count of elements           : 1713
  136. Stream size                 : 44.8 KiB (0%)
  137. Title                       : Brazilian
  138. Language                    : Portuguese
  139. Default                     : No
  140. Forced                      : No
RAW Paste Data
We use cookies for various purposes including analytics. By continuing to use Pastebin, you agree to our use of cookies as described in the Cookies Policy. OK, I Understand
 
Top