SHARE
TWEET

EAC log Aurel_Tamas_-_Colinde_II-CD-FLAC-2003-MiNT

a guest Jul 17th, 2016 5 Never
Not a member of Pastebin yet? Sign Up, it unlocks many cool features!
  1. Exact Audio Copy V1.1 from 23. June 2015
  2. EAC extraction logfile from 17. July 2016, 1:08
  3. Aurel Tamas / Colinde II
  4. Used drive  : ASUS    BW-12B1ST   Adapter: 1  ID: 0
  5. Read mode               : Secure
  6. Utilize accurate stream : Yes
  7. Defeat audio cache      : Yes
  8. Make use of C2 pointers : No
  9. Read offset correction                      : 6
  10. Overread into Lead-In and Lead-Out          : No
  11. Fill up missing offset samples with silence : Yes
  12. Delete leading and trailing silent blocks   : No
  13. Null samples used in CRC calculations       : Yes
  14. Used interface                              : Native Win32 interface for Win NT & 2000
  15. Gap handling                                : Appended to previous track
  16. Used output format              : User Defined Encoder
  17. Selected bitrate                : 1024 kBit/s
  18. Quality                         : High
  19. Add ID3 tag                     : No
  20. Command line compressor         : C:\Program Files (x86)\Exact Audio Copy\Flac\flac.exe
  21. Additional command line options : -8 -V -T "ARTIST=%artist%" -T "TITLE=%title%" -T "ALBUM=%albumtitle%" -T "DATE=%year%" -T "TRACKNUMBER=%tracknr%" -T "GENRE=%genre%" -T "PERFORMER=%albuminterpret%" -T "COMPOSER=%composer%" %haslyrics%--tag-from-file=LYRICS="%lyricsfile%"%haslyrics% -T "ALBUMARTIST=%albumartist%" -T "DISCNUMBER=%cdnumber%" -T "TOTALDISCS=%totalcds%" -T "TOTALTRACKS=%numtracks%" -T "COMMENT=http://musictorrents.org" %source% -o %dest%
  22.  
  23. TOC of the extracted CD
  24.      Track |   Start  |  Length  | Start sector | End sector
  25.     ---------------------------------------------------------
  26.         1  |  0:00.00 |  2:30.57 |         0    |    11306  
  27.         2  |  2:30.57 |  3:25.52 |     11307    |    26733  
  28.         3  |  5:56.34 |  3:01.33 |     26734    |    40341  
  29.         4  |  8:57.67 |  2:50.46 |     40342    |    53137  
  30.         5  | 11:48.38 |  3:25.07 |     53138    |    68519  
  31.         6  | 15:13.45 |  4:17.34 |     68520    |    87828  
  32.         7  | 19:31.04 |  4:49.54 |     87829    |   109557  
  33.         8  | 24:20.58 |  2:00.60 |    109558    |   118617  
  34.         9  | 26:21.43 |  4:22.67 |    118618    |   138334  
  35.        10  | 30:44.35 |  2:25.14 |    138335    |   149223  
  36.        11  | 33:09.49 |  2:28.41 |    149224    |   160364  
  37.        12  | 35:38.15 |  2:42.45 |    160365    |   172559  
  38.        13  | 38:20.60 |  2:51.31 |    172560    |   185415  
  39.        14  | 41:12.16 |  2:21.10 |    185416    |   196000  
  40.  
  41. Track  1
  42.      Filename D:\MT_EAC_RiP\Aurel_Tamas_-_Colinde_II-CD-FLAC-2003-MiNT\01-Asta-i_seara_de_Craciun.wav
  43.      Pre-gap length  0:00:02.00
  44.      Peak level 94.4 %
  45.      Extraction speed 4.4 X
  46.      Track quality 100.0 %
  47.      Test CRC 1FBE0B16
  48.      Copy CRC 1FBE0B16
  49.      Track not present in AccurateRip database
  50.      Copy OK
  51. Track  2
  52.      Filename D:\MT_EAC_RiP\Aurel_Tamas_-_Colinde_II-CD-FLAC-2003-MiNT\02-Ce-ati_vazut_pastori.wav
  53.      Pre-gap length  0:00:02.00
  54.      Peak level 94.4 %
  55.      Extraction speed 4.4 X
  56.      Track quality 99.9 %
  57.      Test CRC 8669B425
  58.      Copy CRC 8669B425
  59.      Track not present in AccurateRip database
  60.      Copy OK
  61. Track  3
  62.      Filename D:\MT_EAC_RiP\Aurel_Tamas_-_Colinde_II-CD-FLAC-2003-MiNT\03-Coborat-o,_coborat.wav
  63.      Pre-gap length  0:00:02.00
  64.      Peak level 94.4 %
  65.      Extraction speed 1.5 X
  66.      Track quality 99.4 %
  67.      Test CRC 361B585D
  68.      Copy CRC 4FDD871D
  69.      Track not present in AccurateRip database
  70.      Copy OK
  71. Track  4
  72.      Filename D:\MT_EAC_RiP\Aurel_Tamas_-_Colinde_II-CD-FLAC-2003-MiNT\04-In_muntoasa_Galileea.wav
  73.      Pre-gap length  0:00:02.00
  74.      Peak level 94.4 %
  75.      Extraction speed 4.7 X
  76.      Track quality 99.9 %
  77.      Test CRC A7411FDB
  78.      Copy CRC A7411FDB
  79.      Track not present in AccurateRip database
  80.      Copy OK
  81. Track  5
  82.      Filename D:\MT_EAC_RiP\Aurel_Tamas_-_Colinde_II-CD-FLAC-2003-MiNT\05-Deschide_usa_crestine.wav
  83.      Pre-gap length  0:00:02.00
  84.      Peak level 94.4 %
  85.      Extraction speed 5.3 X
  86.      Track quality 99.9 %
  87.      Test CRC 81AD899C
  88.      Copy CRC EB910E9E
  89.      Track not present in AccurateRip database
  90.      Copy OK
  91. Track  6
  92.      Filename D:\MT_EAC_RiP\Aurel_Tamas_-_Colinde_II-CD-FLAC-2003-MiNT\06-La_nunta_din_Cana_Galileea.wav
  93.      Pre-gap length  0:00:02.00
  94.      Peak level 94.4 %
  95.      Extraction speed 4.4 X
  96.      Track quality 99.8 %
  97.      Test CRC ABB1EA9C
  98.      Copy CRC BED1BF94
  99.      Track not present in AccurateRip database
  100.      Copy OK
  101. Track  7
  102.      Filename D:\MT_EAC_RiP\Aurel_Tamas_-_Colinde_II-CD-FLAC-2003-MiNT\07-La_toata_casa-i_lumina.wav
  103.      Pre-gap length  0:00:02.00
  104.      Peak level 94.4 %
  105.      Extraction speed 5.2 X
  106.      Track quality 99.8 %
  107.      Test CRC 2D9A4D88
  108.      Copy CRC 2D9A4D88
  109.      Track not present in AccurateRip database
  110.      Copy OK
  111. Track  8
  112.      Filename D:\MT_EAC_RiP\Aurel_Tamas_-_Colinde_II-CD-FLAC-2003-MiNT\08-Noi_umblam_a_colinda.wav
  113.      Pre-gap length  0:00:02.00
  114.      Peak level 94.4 %
  115.      Extraction speed 5.0 X
  116.      Track quality 99.9 %
  117.      Test CRC 254D6E1E
  118.      Copy CRC 254D6E1E
  119.      Track not present in AccurateRip database
  120.      Copy OK
  121. Track  9
  122.      Filename D:\MT_EAC_RiP\Aurel_Tamas_-_Colinde_II-CD-FLAC-2003-MiNT\09-O,_ce_veste_minunata!.wav
  123.      Pre-gap length  0:00:02.00
  124.      Peak level 94.4 %
  125.      Extraction speed 8.1 X
  126.      Track quality 100.0 %
  127.      Test CRC 07F0CF70
  128.      Copy CRC 07F0CF70
  129.      Track not present in AccurateRip database
  130.      Copy OK
  131. Track 10
  132.      Filename D:\MT_EAC_RiP\Aurel_Tamas_-_Colinde_II-CD-FLAC-2003-MiNT\10-Seara_Craciunului_nost.wav
  133.      Pre-gap length  0:00:02.00
  134.      Peak level 94.4 %
  135.      Extraction speed 3.8 X
  136.      Track quality 99.7 %
  137.      Test CRC 37889D14
  138.      Copy CRC 37889D14
  139.      Track not present in AccurateRip database
  140.      Copy OK
  141. Track 11
  142.      Filename D:\MT_EAC_RiP\Aurel_Tamas_-_Colinde_II-CD-FLAC-2003-MiNT\11-Sculati,_sculati_gazde_mari.wav
  143.      Pre-gap length  0:00:02.00
  144.      Peak level 94.4 %
  145.      Extraction speed 6.0 X
  146.      Track quality 99.9 %
  147.      Test CRC EA8931B5
  148.      Copy CRC EA8931B5
  149.      Track not present in AccurateRip database
  150.      Copy OK
  151. Track 12
  152.      Filename D:\MT_EAC_RiP\Aurel_Tamas_-_Colinde_II-CD-FLAC-2003-MiNT\12-Sus_in_'naltul_Cerului.wav
  153.      Pre-gap length  0:00:02.00
  154.      Peak level 94.4 %
  155.      Extraction speed 5.2 X
  156.      Track quality 99.8 %
  157.      Test CRC E37D0D67
  158.      Copy CRC 36396DAC
  159.      Track not present in AccurateRip database
  160.      Copy OK
  161. Track 13
  162.      Filename D:\MT_EAC_RiP\Aurel_Tamas_-_Colinde_II-CD-FLAC-2003-MiNT\13-Sus_la_Poarta_Raiului.wav
  163.      Pre-gap length  0:00:02.00
  164.      Peak level 94.4 %
  165.      Extraction speed 4.2 X
  166.      Track quality 99.7 %
  167.      Test CRC E26893BC
  168.      Copy CRC DC8B0C8D
  169.      Track not present in AccurateRip database
  170.      Copy OK
  171. Track 14
  172.      Filename D:\MT_EAC_RiP\Aurel_Tamas_-_Colinde_II-CD-FLAC-2003-MiNT\14-Trei_Crai_de_la_Rasarit.wav
  173.      Pre-gap length  0:00:02.00
  174.      Peak level 94.4 %
  175.      Extraction speed 1.8 X
  176.      Track quality 99.3 %
  177.      Test CRC A1774976
  178.      Copy CRC A1774976
  179.      Track not present in AccurateRip database
  180.      Copy OK
  181.  
  182. None of the tracks are present in the AccurateRip database
  183. No errors occurred
  184. End of status report
  185. ---- CUETools DB Plugin V2.1.6
  186. [CTDB TOCID: Pcprj7atRFAfPmSPyMS6kO2ImRc-] disk not present in database
  187. Submit result: insufficient quality
  188.  
  189. ==== Log checksum 26F2653839A025074464FD009CD1FAC1D7061E0A9F737112BDAFF2D9CDE650B6 ====
RAW Paste Data
We use cookies for various purposes including analytics. By continuing to use Pastebin, you agree to our use of cookies as described in the Cookies Policy. OK, I Understand
Not a member of Pastebin yet?
Sign Up, it unlocks many cool features!
 
Top