daily pastebin goal
34%
SHARE
TWEET

Untitled

a guest Jun 13th, 2018 66 Never
Upgrade to PRO!
ENDING IN00days00hours00mins00secs
 
  1. Complete name                            : sherlock.jr.1924.1080p.bluray.x264-psychd.mkv
  2. Format                                   : Matroska
  3. Format version                           : Version 2
  4. File size                                : 4.37 GiB
  5. Duration                                 : 44 min 33 s
  6. Overall bit rate                         : 14.0 Mb/s
  7. Writing application                      : mkvmerge v4.1.1 ('Bouncin' Back') built on Jul  3 2010 22:54:08
  8. Writing library                          : libebml v1.0.0 + libmatroska v1.0
  9.  
  10. Video
  11. ID                                       : 1
  12. Format                                   : AVC
  13. Format/Info                              : Advanced Video Codec
  14. Format profile                           : High@L4.1
  15. Format settings                          : CABAC / 5 Ref Frames
  16. Format settings, CABAC                   : Yes
  17. Format settings, RefFrames               : 5 frames
  18. Codec ID                                 : V_MPEG4/ISO/AVC
  19. Duration                                 : 44 min 33 s
  20. Bit rate                                 : 12.5 Mb/s
  21. Width                                    : 1 440 pixels
  22. Height                                   : 1 080 pixels
  23. Display aspect ratio                     : 4:3
  24. Frame rate mode                          : Constant
  25. Frame rate                               : 23.976 (24000/1001) FPS
  26. Color space                              : YUV
  27. Chroma subsampling                       : 4:2:0
  28. Bit depth                                : 8 bits
  29. Scan type                                : Progressive
  30. Bits/(Pixel*Frame)                       : 0.336
  31. Stream size                              : 3.81 GiB (87%)
  32. Writing library                          : x264 core 132 r2310 76a5c3a
  33. Encoding settings                        : cabac=1 / ref=5 / deblock=1:0:0 / analyse=0x3:0x113 / me=umh / subme=8 / psy=1 / psy_rd=1.00:0.00 / mixed_ref=1 / me_range=16 / chroma_me=1 / trellis=1 / 8x8dct=1 / cqm=0 / deadzone=21,11 / fast_pskip=1 / chroma_qp_offset=-2 / threads=12 / lookahead_threads=2 / sliced_threads=0 / nr=0 / decimate=1 / interlaced=0 / bluray_compat=0 / constrained_intra=0 / bframes=3 / b_pyramid=2 / b_adapt=2 / b_bias=0 / direct=3 / weightb=1 / open_gop=0 / weightp=2 / keyint=240 / keyint_min=24 / scenecut=40 / intra_refresh=0 / rc_lookahead=50 / rc=2pass / mbtree=1 / bitrate=12528 / ratetol=1.0 / qcomp=0.60 / qpmin=0 / qpmax=69 / qpstep=4 / cplxblur=20.0 / qblur=0.5 / ip_ratio=1.40 / aq=1:1.00
  34. Language                                 : English
  35. Default                                  : Yes
  36. Forced                                   : No
  37.  
  38. Audio
  39. ID                                       : 2
  40. Format                                   : DTS
  41. Format/Info                              : Digital Theater Systems
  42. Codec ID                                 : A_DTS
  43. Duration                                 : 44 min 33 s
  44. Bit rate mode                            : Constant
  45. Bit rate                                 : 1 509 kb/s
  46. Channel(s)                               : 6 channels
  47. Channel positions                        : Front: L C R, Side: L R, LFE
  48. Sampling rate                            : 48.0 kHz
  49. Frame rate                               : 93.750 FPS (512 SPF)
  50. Bit depth                                : 24 bits
  51. Compression mode                         : Lossy
  52. Stream size                              : 481 MiB (11%)
  53. Language                                 : English
  54. Default                                  : Yes
  55. Forced                                   : No
RAW Paste Data
We use cookies for various purposes including analytics. By continuing to use Pastebin, you agree to our use of cookies as described in the Cookies Policy. OK, I Understand
 
Top