Guest User

Untitled

a guest
Jun 15th, 2014
84
Never
Not a member of Pastebin yet? Sign Up, it unlocks many cool features!
  1. General
  2. Cuban.Fury.2014.Blu.Ray.720p.CINEMANIA.mkv
  3. Format : Matroska
  4. Format version : Version 4 / Version 2
  5. File size : 3.54 GiB
  6. Duration : 1h 37mn
  7. Overall bit rate : 5 177 Kbps
  8. Movie name : Release Group CINEMANIA
  9. Encoded date : UTC 2014-06-15 07:52:37
  10. Writing application : mkvmerge v7.0.0 ('Where We Going') 64bit built on Jun 9 2014 15:16:27
  11. Writing library : libebml v1.3.0 + libmatroska v1.4.1
  12.  
  13. Video
  14. ID : 1
  15. Format : AVC
  16. Format/Info : Advanced Video Codec
  17. Format profile : High@L4.1
  18. Format settings, CABAC : Yes
  19. Format settings, ReFrames : 5 frames
  20. Codec ID : V_MPEG4/ISO/AVC
  21. Duration : 1h 37mn
  22. Bit rate : 4 024 Kbps
  23. Width : 1 280 pixels
  24. Height : 536 pixels
  25. Display aspect ratio : 2.40:1
  26. Frame rate mode : Constant
  27. Frame rate : 23.976 fps
  28. Color space : YUV
  29. Chroma subsampling : 4:2:0
  30. Bit depth : 8 bits
  31. Scan type : Progressive
  32. Bits/(Pixel*Frame) : 0.245
  33. Stream size : 2.68 GiB (76%)
  34. Title : Release Group CINEMANIA
  35. Writing library : x264 core 142 r2431 ac76440
  36. Encoding settings : cabac=1 / ref=5 / deblock=1:-3:-3 / analyse=0x3:0x113 / me=umh / subme=8 / psy=1 / psy_rd=1.00:0.00 / mixed_ref=1 / me_range=16 / chroma_me=1 / trellis=1 / 8x8dct=1 / cqm=0 / deadzone=21,11 / fast_pskip=1 / chroma_qp_offset=-2 / threads=6 / lookahead_threads=1 / sliced_threads=0 / nr=0 / decimate=1 / interlaced=0 / bluray_compat=0 / constrained_intra=0 / bframes=3 / b_pyramid=2 / b_adapt=2 / b_bias=0 / direct=3 / weightb=1 / open_gop=0 / weightp=2 / keyint=240 / keyint_min=24 / scenecut=40 / intra_refresh=0 / rc_lookahead=50 / rc=2pass / mbtree=1 / bitrate=4024 / ratetol=1.0 / qcomp=0.60 / qpmin=0 / qpmax=69 / qpstep=4 / cplxblur=20.0 / qblur=0.5 / ip_ratio=1.40 / aq=1:1.00
  37. Language : English
  38. Default : Yes
  39. Forced : No
  40.  
  41. Audio #1
  42. ID : 2
  43. Format : AC-3
  44. Format/Info : Audio Coding 3
  45. Mode extension : CM (complete main)
  46. Format settings, Endianness : Big
  47. Codec ID : A_AC3
  48. Duration : 1h 37mn
  49. Bit rate mode : Constant
  50. Bit rate : 384 Kbps
  51. Channel(s) : 6 channels
  52. Channel positions : Front: L C R, Side: L R, LFE
  53. Sampling rate : 48.0 KHz
  54. Bit depth : 16 bits
  55. Compression mode : Lossy
  56. Stream size : 269 MiB (7%)
  57. Title : Лицензия
  58. Language : Russian
  59. Default : Yes
  60. Forced : Yes
  61.  
  62. Audio #2
  63. ID : 3
  64. Format : DTS
  65. Format/Info : Digital Theater Systems
  66. Mode : 16
  67. Format settings, Endianness : Big
  68. Codec ID : A_DTS
  69. Duration : 1h 37mn
  70. Bit rate mode : Constant
  71. Bit rate : 768 Kbps
  72. Channel(s) : 6 channels
  73. Channel positions : Front: L C R, Side: L R, LFE
  74. Sampling rate : 48.0 KHz
  75. Bit depth : 24 bits
  76. Compression mode : Lossy
  77. Stream size : 538 MiB (15%)
  78. Language : English
  79. Default : No
  80. Forced : No
  81.  
  82. Text #1
  83. ID : 4
  84. Format : UTF-8
  85. Codec ID : S_TEXT/UTF8
  86. Codec ID/Info : UTF-8 Plain Text
  87. Title : HUNTER
  88. Language : Russian
  89. Default : No
  90. Forced : No
  91.  
  92. Text #2
  93. ID : 5
  94. Format : UTF-8
  95. Codec ID : S_TEXT/UTF8
  96. Codec ID/Info : UTF-8 Plain Text
  97. Title : SDH
  98. Language : English
  99. Default : No
  100. Forced : No
  101.  
  102. Text #3
  103. ID : 6
  104. Format : UTF-8
  105. Codec ID : S_TEXT/UTF8
  106. Codec ID/Info : UTF-8 Plain Text
  107. Language : English
  108. Default : No
  109. Forced : No
  110.  
  111. Menu
  112. 00:00:00.000 : en:00:00:00.000
  113. 00:07:52.555 : en:00:07:52.555
  114. 00:14:40.546 : en:00:14:40.546
  115. 00:22:37.439 : en:00:22:37.439
  116. 00:31:41.942 : en:00:31:41.942
  117. 00:39:04.884 : en:00:39:04.884
  118. 00:47:08.659 : en:00:47:08.659
  119. 00:53:48.809 : en:00:53:48.809
  120. 01:02:54.521 : en:01:02:54.521
  121. 01:09:19.864 : en:01:09:19.864
  122. 01:17:06.872 : en:01:17:06.872
  123. 01:26:49.246 : en:01:26:49.246
RAW Paste Data